img image001 image001 image001 image001 image001 image001 image001 image001 image001 image001 image001 image001 image001 image001 image001 image001

Planets Sun Sun Sun
Статистика раздачи
Автор: Снежана | Размер: 10.37 ГБ | Добавлен: 22 июл 2013
Раздают: 3    Качают: 7
Скачать торрент
Скачать торрент
Описание торрента

СообщениеДобавлено: 22 июл 2013 

#77

Информация о фильме:
Название: Граф Монте-Кристо
Оригинальное название: The Story of the Count of Monte Cristo / Le comte de Monte Cristo
Год выхода: 1961
Жанр: драма, приключения
Режиссер: Клод Отан-Лара
В ролях: Луи Журдан, Ивонн Фюрно, Пьер Монди, Бернар Деран, Франко Силва, Клодин Костер, Жан-Клод Мишель, Ив Ренье, Мари Мерже, Жан Мартинелли

О фильме Оказавшись несправедливо заключенным в страшную тюрьму, откуда нет возврата, Эдмон Дантес в течение тринадцати лет вынужден терпеть лишения и лелеять мысли о мести своим обидчикам. С помощью человека, сидящего с ним в соседней камере, Эдмону удается совершить побег…



Страна: Франция, Италия
Продолжительность: 01:34:18 + 01:34:33
Перевод: Профессиональный (двухголосый закадровый) | Союз-Видео
Качество: BDRip
Контейнер: MKV

Видео 1 серия: 1280x544p, 24.000 fps, MPEG-4 AVC , ~8166 kbps avg
Аудио 1 серия: Russian: DD / 2.0 / 48 kHz / 192 kbps
Аудио 1 серия: French: FLAC / 1.0 / 48 kHz / 223 kbps / 16-bit

Видео 2 серия: 1280x544p, 24.000 fps, MPEG-4 AVC , ~6716 kbps avg
Аудио 2 серия: Russian: DD / 2.0 / 48 kHz / 192 kbps
Аудио 2 серия: French: FLAC / 1.0 / 48 kHz / 223 kbps / 16-bit

Субтитры: French

MediaInfo

General
Unique ID : 215354354896561999864708904157526348676 (0xA203BD758D4445188DC7A82A4E07D384)
Complete name : F:ФильмыLe.Comte.de.Monte.Cristo.1961.720p.BluRay.x264-CtrlHDLe.Comte.de.Monte.Cristo.Part1.1961.720p.BluRay.x264-CtrlHD.mkv
Format : Matroska
Format version : Version 2
File size : 5.66 GiB
Duration : 1h 34mn
Overall bit rate mode : Variable
Overall bit rate : 8 587 Kbps
Encoded date : UTC 2012-07-04 09:29:33
Writing application : mkvmerge v5.6.0 ('Kenya Kane') built on May 27 2012 16:44:04
Writing library : libebml v1.2.3 + libmatroska v1.3.0
Video
ID : 1
Format : AVC
Format/Info : Advanced Video Codec
Format profile : High@L4.1
Format settings, CABAC : Yes
Format settings, ReFrames : 12 frames
Codec ID : V_MPEG4/ISO/AVC
Duration : 1h 34mn
Width : 1 280 pixels
Height : 544 pixels
Display aspect ratio : 2.35:1
Frame rate : 24.000 fps
Color space : YUV
Chroma subsampling : 4:2:0
Bit depth : 8 bits
Scan type : Progressive
Title : Le Comte de Monte-Cristo - Première Époque (1961)
Writing library : x264 core 125 r2200kMod 999b753
Encoding settings : cabac=1 / ref=12 / deblock=1:-3:-3 / analyse=0x3:0x133 / me=umh / subme=11 / psy=1 / fade_compensate=0.00 / psy_rd=1.10:0.00 / mixed_ref=1 / me_range=48 / chroma_me=1 / trellis=2 / 8x8dct=1 / cqm=0 / deadzone=21,11 / fast_pskip=0 / chroma_qp_offset=-2 / threads=6 / lookahead_threads=1 / sliced_threads=0 / nr=0 / decimate=0 / interlaced=0 / bluray_compat=0 / constrained_intra=0 / bframes=8 / b_pyramid=2 / b_adapt=2 / b_bias=0 / direct=3 / weightb=1 / open_gop=0 / weightp=2 / keyint=250 / keyint_min=24 / scenecut=40 / intra_refresh=0 / rc=crf / mbtree=0 / crf=17.0000 / qcomp=0.80 / qpmin=10 / qpmax=51 / qpstep=4 / ip_ratio=1.20 / pb_ratio=1.20 / aq=1:0.70
Language : French
Audio #1
ID : 2
Format : AC-3
Format/Info : Audio Coding 3
Mode extension : CM (complete main)
Codec ID : A_AC3
Duration : 1h 34mn
Bit rate mode : Constant
Bit rate : 192 Kbps
Channel(s) : 2 channels
Channel positions : Front: L R
Sampling rate : 48.0 KHz
Bit depth : 16 bits
Compression mode : Lossy
Stream size : 130 MiB (2%)
Title : DD / 2.0 / 192 kbps | DVO (Союз-Видео)
Language : Russian
Audio #2
ID : 3
Format : FLAC
Format/Info : Free Lossless Audio Codec
Codec ID : A_FLAC
Duration : 1h 34mn
Bit rate mode : Variable
Channel(s) : 1 channel
Sampling rate : 48.0 KHz
Bit depth : 16 bits
Title : FLAC / 1.0 / 223 kbps / 16-bit
Writing library : libFLAC 1.2.1 (UTC 2007-09-17)
Language : French
Text
ID : 4
Format : VobSub
Muxing mode : zlib
Codec ID : S_VOBSUB
Codec ID/Info : The same subtitle format used on DVDs
Language : French
Menu
00:00:00.000 : en:Chap.1
00:11:08.708 : en:Chap.2
00:20:25.625 : en:Chap.3
00:27:27.083 : en:Chap.4
00:37:58.500 : en:Chap.5
00:45:25.958 : en:Chap.6
00:54:22.542 : en:Chap.7
01:03:23.958 : en:Chap.8
01:12:49.125 : en:Chap.9
01:20:00.417 : en:Chap.10
01:26:49.875 : en:Chap.11
01:31:08.833 : en:Chap.12


General
Unique ID : 212527027685540741939011402625941663003 (0x9FE337771A67DCC8A049481841AE6D1B)
Complete name : F:ФильмыLe.Comte.de.Monte.Cristo.1961.720p.BluRay.x264-CtrlHDLe.Comte.de.Monte.Cristo.Part2.1961.720p.BluRay.x264-CtrlHD.mkv
Format : Matroska
Format version : Version 2
File size : 4.72 GiB
Duration : 1h 34mn
Overall bit rate mode : Variable
Overall bit rate : 7 140 Kbps
Encoded date : UTC 2012-07-04 09:37:48
Writing application : mkvmerge v5.6.0 ('Kenya Kane') built on May 27 2012 16:44:04
Writing library : libebml v1.2.3 + libmatroska v1.3.0
Video
ID : 1
Format : AVC
Format/Info : Advanced Video Codec
Format profile : High@L4.1
Format settings, CABAC : Yes
Format settings, ReFrames : 12 frames
Codec ID : V_MPEG4/ISO/AVC
Duration : 1h 34mn
Width : 1 280 pixels
Height : 544 pixels
Display aspect ratio : 2.35:1
Frame rate : 24.000 fps
Color space : YUV
Chroma subsampling : 4:2:0
Bit depth : 8 bits
Scan type : Progressive
Title : Le Comte de Monte-Cristo - Deuxième Époque (1961)
Writing library : x264 core 125 r2200kMod 999b753
Encoding settings : cabac=1 / ref=12 / deblock=1:-3:-3 / analyse=0x3:0x133 / me=umh / subme=11 / psy=1 / fade_compensate=0.00 / psy_rd=1.10:0.00 / mixed_ref=1 / me_range=48 / chroma_me=1 / trellis=2 / 8x8dct=1 / cqm=0 / deadzone=21,11 / fast_pskip=0 / chroma_qp_offset=-2 / threads=6 / lookahead_threads=1 / sliced_threads=0 / nr=0 / decimate=0 / interlaced=0 / bluray_compat=0 / constrained_intra=0 / bframes=8 / b_pyramid=2 / b_adapt=2 / b_bias=0 / direct=3 / weightb=1 / open_gop=0 / weightp=2 / keyint=250 / keyint_min=24 / scenecut=40 / intra_refresh=0 / rc=crf / mbtree=0 / crf=17.0000 / qcomp=0.80 / qpmin=10 / qpmax=51 / qpstep=4 / ip_ratio=1.20 / pb_ratio=1.20 / aq=1:0.70
Language : French
Audio #1
ID : 2
Format : AC-3
Format/Info : Audio Coding 3
Mode extension : CM (complete main)
Codec ID : A_AC3
Duration : 1h 34mn
Bit rate mode : Constant
Bit rate : 192 Kbps
Channel(s) : 2 channels
Channel positions : Front: L R
Sampling rate : 48.0 KHz
Bit depth : 16 bits
Compression mode : Lossy
Stream size : 130 MiB (3%)
Title : DD / 2.0 / 192 kbps | DVO (Союз-Видео)
Language : Russian
Audio #2
ID : 3
Format : FLAC
Format/Info : Free Lossless Audio Codec
Codec ID : A_FLAC
Duration : 1h 34mn
Bit rate mode : Variable
Channel(s) : 1 channel
Sampling rate : 48.0 KHz
Bit depth : 16 bits
Title : FLAC / 1.0 / 225 kbps / 16-bit
Writing library : libFLAC 1.2.1 (UTC 2007-09-17)
Language : French
Text
ID : 4
Format : VobSub
Muxing mode : zlib
Codec ID : S_VOBSUB
Codec ID/Info : The same subtitle format used on DVDs
Language : French
Menu
00:00:00.000 : en:Chap.1
00:12:14.708 : en:Chap.2
00:18:21.667 : en:Chap.3
00:23:10.500 : en:Chap.4
00:31:56.875 : en:Chap.5
00:34:15.500 : en:Chap.6
00:40:48.542 : en:Chap.7
00:51:58.458 : en:Chap.8
00:58:09.042 : en:Chap.9
01:07:06.375 : en:Chap.10
01:15:49.833 : en:Chap.11
01:28:12.708 : en:Chap.12




   Похожие торренты   Торрент   Размер 
В этой теме нет новых непрочитанных сообщений. Граф Монте Кристо / The Count of Monte Cristo (2002) BDRip-AVC | D, P2

107 | 24

2.87 ГБ

В этой теме нет новых непрочитанных сообщений. Граф Монте-Кристо / Le Comte de Monte Cristo (1954) DVDRip-AVC

267 | 26

3.09 ГБ

В этой теме нет новых непрочитанных сообщений. Граф Монте Кристо / The Count of Monte Cristo (1997) DVDRip | P

90 | 6

741.94 МБ

В этой теме нет новых непрочитанных сообщений. Граф Монте-Кристо / The Count of Monte Cristo (2002) HDRip от Scarabey | P

208 | 22

1.45 ГБ

В этой теме нет новых непрочитанных сообщений. Под знаком Монте-Кристо / Sous le signe de Monte-Cristo (1968) SATRip | P

1 | 1

1.36 ГБ

В этой теме нет новых непрочитанных сообщений. Бросок в Монте-Карло / Monte Carlo Or Bust! / Those Daring Young Men in Their Jaunty Jalopies (1969) BDRip

167 | 15

2.01 ГБ

В этой теме нет новых непрочитанных сообщений. Монте-Карло / Monte Carlo (1930) DVDRip от egoleshik | A

0 | 0

1.36 ГБ




Вы не можете начинать темы
Вы не можете отвечать на сообщения
Вы не можете редактировать свои сообщения
Вы не можете удалять свои сообщения
Вы не можете добавлять вложения

Перейти:  
 Вход
ppkBB3cker v.2 © 2008-2014 @ PPK
[ Time : 0.027s | 18 Queries | GZIP : Off ]

cron