img image001 image001 image001 image001 image001 image001 image001 image001 image001 image001 image001 image001 image001 image001 image001 image001

Planets Sun Sun Sun
Статистика раздачи
Автор: Nickolas3434 | Размер: 26.9 ГБ | Добавлен: 12 янв 2018
Раздают: 69    Качают: 15
Скачать торрент
Скачать торрент
Описание торрента

СообщениеДобавлено: 12 янв 2018 

Информация о фильме
Название: Снеговик
Оригинальное название: The Snowman
Год выхода: 2017
Жанр: Ужасы, триллер, драма, криминал, детектив
Режиссер: Томас Альфредсон
В ролях: Майкл Фассбендер, Ребекка Фергюсон (II), Шарлотта Генсбур, Йонас Карлссон, Ронан Вайберт, Дж.К. Симмонс, Вэл Килмер, Давид Денсик, Тоби Джонс
О фильме:
В течение многих лет в день, когда выпадает первый снег, бесследно исчезают замужние женщины. Сложить все части загадочного пазла под силу только знаменитому детективу. Он потерял покой и сон, ведь время следующего снегопада неумолимо приближается.

Страна: Великобритания, США, Швеция
Студия: Universal Pictures, Perfect World Pictures, Another Park Film
Продолжительность: 01:59:15
Перевод: Дублированный | iTunes
Файл
Качество: BDRemux 1080p
Видео: MPEG-4 AVC, 1920x1080, 26.9 Mbit/s, 23.976 fps
Звук:
Аудио #01: 48 kHz, AC3, 5.1, 384 Kbps | Дублированный | iTunes | RUS |
Аудио #02: 48 kHz, DTS-HD MA, 7.1, 4976 Kbps | Оригинал | ENG |
Субтитры: Русские (forced, full), английские

General
Unique ID : 14777687849541968225350495312431977757 (0xB1E14436CCD8F3E8541B5BF81D6951D)
Complete name : G:VideoSSDThe.Snowman.2017.BDREMUX.1080p.ExKinoRay.mkv
Format : Matroska
Format version : Version 4 / Version 2
File size : 26.9 GiB
Duration : 1 h 59 min
Overall bit rate mode : Variable
Overall bit rate : 32.3 Mb/s
Movie name : The Snowman 2017 from ExKinoRay
Encoded date : UTC 2018-01-07 00:14:11
Writing application : mkvmerge v19.0.0 ('Brave Captain') 64-bit
Writing library : libebml v1.3.5 + libmatroska v1.4.8
Video
ID : 1
Format : AVC
Format/Info : Advanced Video Codec
Format profile : High@L4.1
Format settings : CABAC / 4 Ref Frames
Format settings, CABAC : Yes
Format settings, ReFrames : 4 frames
Format settings, GOP : M=3, N=12
Codec ID : V_MPEG4/ISO/AVC
Duration : 1 h 59 min
Bit rate mode : Variable
Bit rate : 26.9 Mb/s
Maximum bit rate : 30.0 Mb/s
Width : 1 920 pixels
Height : 1 080 pixels
Display aspect ratio : 16:9
Frame rate mode : Constant
Frame rate : 23.976 (24000/1001) FPS
Color space : YUV
Chroma subsampling : 4:2:0
Bit depth : 8 bits
Scan type : Progressive
Bits/(Pixel*Frame) : 0.542
Stream size : 22.4 GiB (83%)
Language : English
Default : Yes
Forced : No
Audio #1
ID : 2
Format : AC-3
Format/Info : Audio Coding 3
Codec ID : A_AC3
Duration : 1 h 59 min
Bit rate mode : Constant
Bit rate : 384 kb/s
Channel(s) : 6 channels
Channel positions : Front: L C R, Side: L R, LFE
Sampling rate : 48.0 kHz
Frame rate : 31.250 FPS (1536 SPF)
Bit depth : 16 bits
Compression mode : Lossy
Stream size : 327 MiB (1%)
Title : iTunes
Language : Russian
Service kind : Complete Main
Default : Yes
Forced : No
Audio #2
ID : 3
Format : DTS
Format/Info : Digital Theater Systems
Format profile : MA / Core
Codec ID : A_DTS
Duration : 1 h 59 min
Bit rate mode : Variable / Constant
Bit rate : 4 976 kb/s / 1 509 kb/s
Channel(s) : 8 channels / 6 channels
Channel positions : Front: L C R, Side: L R, Back: L R, LFE / Front: L C R, Side: L R, LFE
Sampling rate : 48.0 kHz
Frame rate : 93.750 FPS (512 SPF)
Bit depth : 24 bits
Compression mode : Lossless / Lossy
Stream size : 4.14 GiB (15%)
Title : Original
Language : English
Default : No
Forced : No
Text #1
ID : 4
Format : UTF-8
Codec ID : S_TEXT/UTF8
Codec ID/Info : UTF-8 Plain Text
Duration : 1 h 37 min
Bit rate : 1 b/s
Count of elements : 34
Stream size : 1.42 KiB (0%)
Title : Forced
Language : Russian
Default : Yes
Forced : No
Text #2
ID : 5
Format : UTF-8
Codec ID : S_TEXT/UTF8
Codec ID/Info : UTF-8 Plain Text
Duration : 1 h 53 min
Bit rate : 59 b/s
Count of elements : 1027
Stream size : 49.5 KiB (0%)
Title : Full
Language : Russian
Default : No
Forced : No
Text #3
ID : 6
Format : UTF-8
Codec ID : S_TEXT/UTF8
Codec ID/Info : UTF-8 Plain Text
Duration : 1 h 53 min
Bit rate : 37 b/s
Count of elements : 1054
Stream size : 31.0 KiB (0%)
Title : Full
Language : English
Default : No
Forced : No
Text #4
ID : 7
Format : UTF-8
Codec ID : S_TEXT/UTF8
Codec ID/Info : UTF-8 Plain Text
Duration : 1 h 53 min
Bit rate : 42 b/s
Count of elements : 1163
Stream size : 35.4 KiB (0%)
Title : SDH
Language : English
Default : No
Forced : No
Menu
00:00:00.000 : en:00:00:00.000
00:06:23.008 : en:00:06:23.008
00:13:43.072 : en:00:13:43.072
00:20:05.663 : en:00:20:05.663
00:24:21.377 : en:00:24:21.377
00:29:25.263 : en:00:29:25.263
00:33:09.321 : en:00:33:09.321
00:42:17.285 : en:00:42:17.285
00:50:44.124 : en:00:50:44.124
00:55:33.747 : en:00:55:33.747
01:02:19.903 : en:01:02:19.903
01:08:06.457 : en:01:08:06.457
01:12:24.215 : en:01:12:24.215
01:17:31.397 : en:01:17:31.397
01:23:55.489 : en:01:23:55.489
01:29:06.883 : en:01:29:06.883
01:35:45.323 : en:01:35:45.323
01:42:39.028 : en:01:42:39.028
01:50:33.752 : en:01:50:33.752
01:54:23.982 : en:01:54:23.982

Релиз от: Автор релиза:
Подпишись на меня, кликни по картинке > :



   Похожие торренты   Торрент   Размер 
В этой теме нет новых непрочитанных сообщений. Снеговик / The Snowman (2017) BDRip 1080p от ExKinoRay | iTunes

493 | 77

11.5 ГБ

В этой теме нет новых непрочитанных сообщений. Снеговик / The Snowman (2017) BDRip от ExKinoRay | iTunes

107 | 9

1.41 ГБ

В этой теме нет новых непрочитанных сообщений. Снеговик / The Snowman (2017) BDRip от ExKinoRay | iTunes

240 | 11

2.13 ГБ

В этой теме нет новых непрочитанных сообщений. Снеговик / The Snowman (2017) BDRip 720p от ExKinoRay | iTunes

426 | 58

6.15 ГБ

В этой теме нет новых непрочитанных сообщений. Снеговик / The Snowman (2017) WEB-DL 1080p | iTunes

286 | 15

4.81 ГБ

В этой теме нет новых непрочитанных сообщений. Снеговик / The Snowman (2017) BDRip 1080p | iTunes

166 | 8

9.07 ГБ

В этой теме нет новых непрочитанных сообщений. Снеговик / The Snowman (1982) BDRemux 1080p

1 | 0

5.45 ГБ




Вы не можете начинать темы
Вы не можете отвечать на сообщения
Вы не можете редактировать свои сообщения
Вы не можете удалять свои сообщения
Вы не можете добавлять вложения

Перейти:  
 Вход
ppkBB3cker v.2 © 2008-2014 @ PPK
[ Time : 0.031s | 19 Queries | GZIP : Off ]

cron