img image001 image001 image001 image001 image001 image001 image001 image001 image001 image001 image001 image001 image001 image001 image001

Planets Sun Sun Sun
Статистика раздачи
Автор: Nickolas3434 | Размер: 1.79 ГБ | Добавлен: 12 янв 2018
Раздают: 37    Качают: 1
Скачать торрент
Скачать торрент
Описание торрента

СообщениеДобавлено: 12 янв 2018 

Информация о фильме
Название: Борг/Макинрой
Оригинальное название: Borg McEnroe
Год выхода: 2017
Жанр: драма, биография, спорт
Режиссер: Янус Мец
В ролях: Сверрир Гуднасон, Шайа ЛаБаф, Стеллан Скарсгард, Тува Новотны, Лео Борг, Маркус Моссберг, Джексон Гэнн, Скотт Артур, Йен Блэкман, Роберт Эммс
О фильме:
Две звезды, один судьбоносный матч и миллионы зрителей.
Невозмутимый Борг против вспыльчивого Макинроя. Упорство против упрямства. Борьба двух противоположных характеров, движимых, однако, одной целью — быть лучшим!

Страна: Швеция, Дания, Финляндия
Студия: SF Studios Production AB, Danish Film Institute, Film i Väst
Продолжительность: 01:47:34
Перевод: Дублированный | iTunes
Файл
Кодек: H.264(NVENC)
Качество: WEB-DLRip (AVC)
Видео: 1024x428 (2.40:1), 24.000 fps, MPEG-4 AVC, 1 956 Kbps
Звук: AC3, 384 Kbps, 48.0 KHz, 6 ch
Сэмпл
http://sendfile.su/1389865

Код:
General
Unique ID                                : 253180548559501764281173606735952433331 (0xBE78CCCB89383CE613F07D72E25350B3)
Complete name                            : Borg.McEnroe.2017.WEB-DLRip (AVC) by WSM.mkv
Format                                   : Matroska
Format version                           : Version 4 / Version 2
File size                                : 1.79 GiB
Duration                                 : 1h 47mn
Overall bit rate mode                    : Variable
Overall bit rate                         : 2 388 Kbps
Encoded date                             : UTC 2018-01-07 14:51:27
Writing application                      : Lavf58.2.103
Writing library                          : Lavf58.2.103
ARTIST                                   : WSM
Video
ID                                       : 1
Format                                   : AVC
Format/Info                              : Advanced Video Codec
Format profile                           : Main@L4.1
Format settings, CABAC                   : Yes
Format settings, ReFrames                : 7 frames
Codec ID                                 : V_MPEG4/ISO/AVC
Duration                                 : 1h 47mn
Bit rate mode                            : Variable
Bit rate                                 : 1 956 Kbps
Maximum bit rate                         : 3 500 Kbps
Width                                    : 1 024 pixels
Height                                   : 428 pixels
Display aspect ratio                     : 2.40:1
Frame rate mode                          : Constant
Frame rate                               : 24.000 fps
Color space                              : YUV
Chroma subsampling                       : 4:2:0
Bit depth                                : 8 bits
Scan type                                : Progressive
Bits/(Pixel*Frame)                       : 0.186
Stream size                              : 1.47 GiB (82%)
Writing library                          : Lavc58.8.100 nvenc_h264
Language                                 : English
Default                                  : Yes
Forced                                   : No
DURATION                                 : 01:47:34.584000000
Color primaries                          : BT.709
Transfer characteristics                 : BT.709
Matrix coefficients                      : BT.709
Audio
ID                                       : 2
Format                                   : AC-3
Format/Info                              : Audio Coding 3
Mode extension                           : CM (complete main)
Format settings, Endianness              : Big
Codec ID                                 : A_AC3
Duration                                 : 1h 47mn
Bit rate mode                            : Constant
Bit rate                                 : 384 Kbps
Channel(s)                               : 6 channels
Channel positions                        : Front: L C R, Side: L R, LFE
Sampling rate                            : 48.0 KHz
Bit depth                                : 16 bits
Compression mode                         : Lossy
Stream size                              : 295 MiB (16%)
Language                                 : Russian
Default                                  : Yes
Forced                                   : No
DURATION                                 : 01:47:34.624000000



   Похожие торренты   Торрент   Размер 
В этой теме нет новых непрочитанных сообщений. Борг/Макинрой / Borg McEnroe (2017) WEB-DLRip от Generalfilm | КПК | iTunes

22 | 2

408.94 МБ

В этой теме нет новых непрочитанных сообщений. Борг/Макинрой / Borg McEnroe (2017) WEB-DLRip от MegaPeer | iTunes

80 | 2

748.35 МБ

В этой теме нет новых непрочитанных сообщений. Борг/Макинрой / Borg McEnroe (2017) WEB-DLRip от MegaPeer | iTunes

694 | 22

1.46 ГБ

В этой теме нет новых непрочитанных сообщений. Борг/Макинрой / Borg McEnroe (2017) WEB-DLRip-AVC от Kaztorrents | iTunes

180 | 5

1.46 ГБ

В этой теме нет новых непрочитанных сообщений. Борг/Макинрой / Borg McEnroe (2017) WEB-DLRip от Scarabey | iTunes

352 | 29

1.45 ГБ

В этой теме нет новых непрочитанных сообщений. Борг/Макинрой / Borg McEnroe (2017) WEB-DLRip от Scarabey | iTunes

52 | 2

747.17 МБ

В этой теме нет новых непрочитанных сообщений. Борг/Макинрой / Borg McEnroe (2017) WEB-DL 720p | iTunes

115 | 8

3.34 ГБ




Вы не можете начинать темы
Вы не можете отвечать на сообщения
Вы не можете редактировать свои сообщения
Вы не можете удалять свои сообщения
Вы не можете добавлять вложения

Перейти:  
Для Мосгорсуда, Роскомнадзора и рекламодателей: mosgorsud-torrent[собачка]yandex.ru
 Вход
ppkBB3cker v.2 © 2008-2014 @ PPK
[ Time : 0.144s | 19 Queries | GZIP : Off ]

cron