img image001 image001 image001 image001 image001 image001 image001 image001 image001 image001 image001 image001 image001 image001 image001 image001

Planets Sun Sun Sun
Статистика раздачи
Автор: Nickolas3434 | Размер: 19.71 ГБ | Добавлен: 12 янв 2018
Раздают: 130    Качают: 21
Скачать торрент
Скачать торрент
Описание торрента

СообщениеДобавлено: 12 янв 2018 

Информация о фильме
Название: Уотергейт. Крушение Белого дома
Оригинальное название: Mark Felt: The Man Who Brought Down the White House
Год выхода: 2017
Жанр: Триллер, драма, биография, история
Режиссер: Питер Ландесман
В ролях: Лиам Нисон, Дайан Лэйн, Мартон Чокаш, Тони Голдуин, Айк Баринхолц, Джош Лукас, Венди МакЛендон-Кови, Кейт Уолш, Брайан Д Арси Джеймс, Майка Монро
О фильме:
Фильм о главном звене самого громкого скандала ХХ века «Уотергейт», который привел к преждевременной отставке президента Ричарда Никсона. Личность человека, передававшего прессе обличительную информацию на главу государства, долгое время была окутана тайной и установлена лишь спустя 30 лет после его собственного признания. Шокирующая невероятная история, основанная на реальных событиях, о жизни блестящего и бескомпромиссного Заместителя Начальника ФБР Марка Фелта, который пожертвовал всем — своей семьей, своей карьерой и своей свободой, чтобы мир узнал правду.

Страна: США
Студия: Endurance Media, MadRiver Pictures, Playtone, Riverstone Pictures, Scott Free Productions, Torridon Films
Продолжительность: 01:42:57
Перевод: Профессиональный (многоголосый, закадровый) | iTunes
Файл
Кодек: MPEG-4 AVC
Качество: BDRemux | iTunes
Видео: AVC, 1920x1080, 24.9 Mbps, 23.976 fps
Звук:
Аудио:1 AC3, 6 ch, 384 Kbps - Русский
Аудио:2 DTS-HD MA, 6 ch, ~2120 kbps - Английский
Субтитры: Английские
General
Unique ID : 184603375553675956840357272422371466272 (0x8AE1511F23564AD9BA31561B181E9C20)
Complete name : Down the White House.2017.REMUX.mkv
Format : Matroska
Format version : Version 4 / Version 2
File size : 19.7 GiB
Duration : 1 h 42 min
Overall bit rate mode : Variable
Overall bit rate : 27.4 Mb/s
Encoded date : UTC 2018-01-08 22:42:56
Writing application : mkvmerge v17.0.0 ('Be Ur Friend') 64-bit
Writing library : libebml v1.3.5 + libmatroska v1.4.8
Video
ID : 1
Format : AVC
Format/Info : Advanced Video Codec
Format profile : High@L4.1
Format settings, CABAC : Yes
Format settings, RefFrames : 2 frames
Codec ID : V_MPEG4/ISO/AVC
Duration : 1 h 42 min
Bit rate mode : Variable
Bit rate : 24.9 Mb/s
Width : 1 920 pixels
Height : 1 080 pixels
Display aspect ratio : 16:9
Frame rate mode : Constant
Frame rate : 23.976 (24000/1001) FPS
Color space : YUV
Chroma subsampling : 4:2:0
Bit depth : 8 bits
Scan type : Progressive
Bits/(Pixel*Frame) : 0.501
Stream size : 17.9 GiB (91%)
Language : English
Default : Yes
Forced : No
Audio #1
ID : 2
Format : AC-3
Format/Info : Audio Coding 3
Format settings, Endianness : Big
Codec ID : A_AC3
Duration : 1 h 42 min
Bit rate mode : Constant
Bit rate : 384 kb/s
Channel(s) : 6 channels
Channel positions : Front: L C R, Side: L R, LFE
Sampling rate : 48.0 kHz
Frame rate : 31.250 FPS (1536 SPF)
Bit depth : 16 bits
Compression mode : Lossy
Stream size : 282 MiB (1%)
Language : Russian
Service kind : Complete Main
Default : Yes
Forced : No
Audio #2
ID : 3
Format : DTS
Format/Info : Digital Theater Systems
Format profile : MA / Core
Mode : 16
Format settings, Endianness : Big
Codec ID : A_DTS
Duration : 1 h 42 min
Bit rate mode : Variable / Constant
Bit rate : 2 120 kb/s / 1 509 kb/s
Channel(s) : 6 channels
Channel positions : Front: L C R, Side: L R, LFE
Sampling rate : 48.0 kHz
Frame rate : 93.750 FPS (512 SPF)
Bit depth : 16 bits
Compression mode : Lossless / Lossy
Stream size : 1.52 GiB (8%)
Language : English
Default : No
Forced : No
Text
ID : 4
Format : UTF-8
Codec ID : S_TEXT/UTF8
Codec ID/Info : UTF-8 Plain Text
Duration : 1 h 37 min
Bit rate : 60 b/s
Count of elements : 1180
Stream size : 43.2 KiB (0%)
Language : English
Default : No
Forced : No
Menu
00:00:00.000 : en:Chapter 1
00:08:38.226 : en:Chapter 2
00:15:54.078 : en:Chapter 3
00:21:22.823 : en:Chapter 4
00:33:01.396 : en:Chapter 5
00:36:17.509 : en:Chapter 6
00:47:14.040 : en:Chapter 7
00:56:39.271 : en:Chapter 8
01:03:02.946 : en:Chapter 9
01:10:16.421 : en:Chapter 10
01:13:50.551 : en:Chapter 11
01:17:03.828 : en:Chapter 12
01:21:09.239 : en:Chapter 13
01:26:26.306 : en:Chapter 14
01:29:31.032 : en:Chapter 15
01:35:10.580 : en:Chapter 16







   Похожие торренты   Торрент   Размер 
В этой теме нет новых непрочитанных сообщений. Уотергейт. Крушение Белого дома / Mark Felt: The Man Who Brought Down the White House (2017) BDRemux 1080p | RUS Transfer | Лицензия

0 | 0

18.05 ГБ

В этой теме нет новых непрочитанных сообщений. Уотергейт. Крушение Белого дома / Mark Felt: The Man Who Brought Down the White House (2017) BDRip 1080p | iTunes

1366 | 83

10.32 ГБ

В этой теме нет новых непрочитанных сообщений. Уотергейт. Крушение Белого дома / Mark Felt: The Man Who Brought Down the White House (2017) BDRip от ExKinoRay | iTunes

148 | 14

1.42 ГБ

В этой теме нет новых непрочитанных сообщений. Уотергейт. Крушение Белого дома / Mark Felt: The Man Who Brought Down the White House (2017) BDRip-AVC от HELLYWOOD | iTunes

264 | 5

1.42 ГБ

В этой теме нет новых непрочитанных сообщений. Уотергейт. Крушение Белого дома / Mark Felt: The Man Who Brought Down the White House (2017) HDRip от Scarabey | iTunes

31 | 0

1.48 ГБ

В этой теме нет новых непрочитанных сообщений. Уотергейт. Крушение Белого дома / Mark Felt: The Man Who Brought Down the White House (2017) BDRip от MegaPeer | iTunes

225 | 16

745.56 МБ

В этой теме нет новых непрочитанных сообщений. Уотергейт. Крушение Белого дома / Mark Felt: The Man Who Brought Down the White House (2017) BDRip от MegaPeer | iTunes

3727 | 94

1.41 ГБ




Вы не можете начинать темы
Вы не можете отвечать на сообщения
Вы не можете редактировать свои сообщения
Вы не можете удалять свои сообщения
Вы не можете добавлять вложения

Перейти:  
 Вход
ppkBB3cker v.2 © 2008-2014 @ PPK
[ Time : 0.037s | 18 Queries | GZIP : Off ]

cron