img image001 image001 image001 image001 image001 image001 image001 image001 image001 image001 image001 image001 image001 image001 image001 image001

Planets Sun Sun Sun
Статистика раздачи
Автор: Nickolas3434 | Размер: 27.97 ГБ | Добавлен: 12 янв 2018
Раздают: 7    Качают: 2
Скачать торрент
Скачать торрент
Описание торрента

СообщениеДобавлено: 12 янв 2018 

Информация о фильме
Название: Смерть ходит на высоких каблуках
Оригинальное название: La morte cammina con i tacchi alti / Death Walks on High Heels
Год выхода: 1971
Жанр: триллер, детектив
Режиссер: Лучиано Эрколи
В ролях: Фрэнк Вулф, Ниевес Наварро, Симон Андреу, Карло Джентили, Жорж Риго, Хосе Мануэль Мартин, Фабрицио Мореско, Лучано Росси, Клоди Ланж, Освальдо Дженаццани
Описание: Знаменитый вор драгоценностей Роша найден мертвым в поезде. Его дочь Николь, знаменитую танцовщицу ночного клуба в Париже, допрашивает полиция. Стражи порядка хотят больше узнать об исчезнувших бриллиантах, которые, предположительно, были у ее отца. Но девушка утверждает, что ничего не знает о делах своего отца. Вскоре Николь начинает терроризировать странный человек в маске, который требует сказать ему, где Роша спрятал украденные драгоценности. Николь считает, что этим преступником может быть ее ревнивый дружок Мишель. Вместе со своим новым знакомым, доктором Робертом Мэттьюзом, Николь уезжает в Англию, но убийца следует за ней по пятам…

Страна: Италия, Испания
Продолжительность: 01:47:48
Перевод: Любительский (одноголосый закадровый) Вадим Белов
Субтитры: английские
Оригинальная аудиодорожка: итальянский
Файл
Качество: BDRemux 1080р
Видео: MPEG-4 / 34840 kbps / 1080p / 23.976 fps / 16:9 / High Profile 4.1
Аудио 1: Russian / 48 kHz, AC3, 2.0 ch, 192 kbps
Аудио 2: Italian / DTS-HD Master Audio / 1.0 / 48 kHz / 1088 kbps / 24-bit (DTS Core: 1.0 / 48 kHz / 768 kbps / 24-bit)
Аудио 3: English / DTS-HD Master Audio / 1.0 / 48 kHz / 1077 kbps / 24-bit (DTS Core: 1.0 / 48 kHz / 768 kbps / 24-bit)

General
Unique ID : 241755676959249660920201471561688258931 (0xB5E07322B1BC037481BA8F7E97A59973)
Complete name : Смерть ходит на высоких каблуках (1971. La Morte Cammina Con I Tacchi Alti).mkv
Format : Matroska
Format version : Version 4 / Version 2
File size : 28.0 GiB
Duration : 1h 47mn
Overall bit rate mode : Variable
Overall bit rate : 37.1 Mbps
Encoded date : UTC 2016-04-09 01:33:13
Writing application : mkvmerge v9.0.1 ('Obstacles') 64bit
Writing library : libebml v1.3.3 + libmatroska v1.4.4
Cover : Yes
Attachments : Cover.jpg
Video
ID : 1
Format : AVC
Format/Info : Advanced Video Codec
Format profile : High@L4.1
Format settings, CABAC : Yes
Format settings, ReFrames : 3 frames
Codec ID : V_MPEG4/ISO/AVC
Duration : 1h 47mn
Bit rate mode : Variable
Bit rate : 35.0 Mbps
Maximum bit rate : 38.0 Mbps
Width : 1 920 pixels
Height : 1 080 pixels
Display aspect ratio : 16:9
Frame rate mode : Constant
Frame rate : 23.976 (24000/1001) fps
Color space : YUV
Chroma subsampling : 4:2:0
Bit depth : 8 bits
Scan type : Progressive
Bits/(Pixel*Frame) : 0.704
Stream size : 26.2 GiB (94%)
Title : La morte cammina con i tacchi alti 1971 1080p Blu-ray AVC DTS-HD MA 1.0-Karloff
Writing library : x264 core 142 r2479kMod dd79a61
Encoding settings : cabac=1 / ref=4 / deblock=0:-1:-1 / analyse=0x3:0x133 / me=umh / subme=10 / psy=1 / fade_compensate=0.00 / psy_rd=1.00:0.15 / mixed_ref=1 / me_range=24 / chroma_me=1 / trellis=2 / 8x8dct=1 / cqm=0 / deadzone=21,11 / fast_pskip=0 / chroma_qp_offset=-3 / threads=12 / lookahead_threads=1 / sliced_threads=0 / slices=4 / nr=0 / decimate=0 / interlaced=0 / bluray_compat=1 / constrained_intra=0 / fgo=15 / bframes=3 / b_pyramid=1 / b_adapt=2 / b_bias=0 / direct=3 / weightb=1 / open_gop=1 / weightp=1 / keyint=24 / keyint_min=1 / scenecut=40 / intra_refresh=0 / rc_lookahead=24 / rc=abr / mbtree=1 / bitrate=35000 / ratetol=1.0 / qcomp=0.00 / qpmin=0 / qpmax=69 / qpstep=4 / vbv_maxrate=38000 / vbv_bufsize=28500 / nal_hrd=vbr / filler=0 / ip_ratio=1.40 / aq=1:1.00
Language : Italian
Default : Yes
Forced : No
Color range : Limited
Color primaries : BT.709
Transfer characteristics : BT.709
Matrix coefficients : BT.709
Audio #1
ID : 2
Format : AC-3
Format/Info : Audio Coding 3
Mode extension : CM (complete main)
Format settings, Endianness : Big
Codec ID : A_AC3
Duration : 1h 47mn
Bit rate mode : Constant
Bit rate : 192 Kbps
Channel(s) : 2 channels
Channel positions : Front: L R
Sampling rate : 48.0 KHz
Frame rate : 31.250 fps (1536 spf)
Compression mode : Lossy
Stream size : 148 MiB (1%)
Title : Вадим Белов
Language : Russian
Default : Yes
Forced : No
Audio #2
ID : 3
Format : DTS
Format/Info : Digital Theater Systems
Format profile : MA / Core
Mode : 16
Format settings, Endianness : Big
Codec ID : A_DTS
Duration : 1h 47mn
Bit rate mode : Variable / Constant
Bit rate : 1 056 Kbps / 768 Kbps
Channel(s) : 1 channel
Channel positions : Front: C
Sampling rate : 48.0 KHz
Frame rate : 93.750 fps (512 spf)
Bit depth : 24 bits
Compression mode : Lossless / Lossy
Stream size : 814 MiB (3%)
Language : Italian
Default : No
Forced : No
Audio #3
ID : 4
Format : DTS
Format/Info : Digital Theater Systems
Format profile : MA / Core
Mode : 16
Format settings, Endianness : Big
Codec ID : A_DTS
Duration : 1h 47mn
Bit rate mode : Variable / Constant
Bit rate : 1 024 Kbps / 768 Kbps
Channel(s) : 1 channel
Channel positions : Front: C
Sampling rate : 48.0 KHz
Frame rate : 93.750 fps (512 spf)
Bit depth : 24 bits
Compression mode : Lossless / Lossy
Stream size : 801 MiB (3%)
Language : English
Default : No
Forced : No
Text #1
ID : 5
Format : UTF-8
Codec ID : S_TEXT/UTF8
Codec ID/Info : UTF-8 Plain Text
Duration : 1h 46mn
Bit rate : 51 bps
Count of elements : 1006
Stream size : 40.7 KiB (0%)
Language : English
Default : No
Forced : No
Text #2
ID : 6
Format : UTF-8
Codec ID : S_TEXT/UTF8
Codec ID/Info : UTF-8 Plain Text
Duration : 1h 47mn
Bit rate : 62 bps
Count of elements : 1276
Stream size : 49.3 KiB (0%)
Title : SDH
Language : English
Default : No
Forced : No
Menu
00:00:00.000 : en:00:00:00.000
00:08:29.509 : en:00:08:29.509
00:19:26.248 : en:00:19:26.248
00:28:28.624 : en:00:28:28.624
00:36:17.884 : en:00:36:17.884
00:45:11.125 : en:00:45:11.125
00:53:16.902 : en:00:53:16.902
01:01:11.543 : en:01:01:11.543
01:11:10.558 : en:01:11:10.558
01:20:52.598 : en:01:20:52.598
01:30:14.868 : en:01:30:14.868
01:38:50.299 : en:01:38:50.299



   Похожие торренты   Торрент   Размер 
В этой теме нет новых непрочитанных сообщений. Кристиан Лубутен. На Высоких Каблуках (2014) HDTVRip-AVC | P

0 | 0

698.15 МБ

В этой теме нет новых непрочитанных сообщений. Кристиан Лубутен. На Высоких Каблуках (2014) HDTVRip 720p | P

1 | 0

1.59 ГБ

В этой теме нет новых непрочитанных сообщений. Смерть приходит в полночь / La morte accarezza a mezzanotte (1972) BDRemux 1080p | A

0 | 0

28.71 ГБ

В этой теме нет новых непрочитанных сообщений. Следствие вели... с Леонидом Каневским. Смерть на каблуках [10.09] (2017) HDTVRip от GeneralFim

39 | 2

499.99 МБ

В этой теме нет новых непрочитанных сообщений. Смерть супергероя / Death of a Superhero (2011) BDRemux 1080p | Р

5 | 3

14.97 ГБ

В этой теме нет новых непрочитанных сообщений. Смерть ей к лицу / Death Becomes Her (1992) BDRemux 1080p от MediaClub | P, A

5 | 4

20.03 ГБ

В этой теме нет новых непрочитанных сообщений. Ордер на смерть / Death Warrant (1990) BDRemux 1080p | D, P, A

2 | 10

21.74 ГБ




Вы не можете начинать темы
Вы не можете отвечать на сообщения
Вы не можете редактировать свои сообщения
Вы не можете удалять свои сообщения
Вы не можете добавлять вложения

Перейти:  
 Вход
ppkBB3cker v.2 © 2008-2014 @ PPK
[ Time : 0.027s | 19 Queries | GZIP : Off ]

cron