img image001 image001 image001 image001 image001 image001 image001 image001 image001 image001 image001 image001 image001 image001 image001 image001
Planets Sun Sun Sun
Статистика раздачи
Автор: Nickolas3434 | Размер: 18.11 ГБ | Добавлен: 12 янв 2018
Раздают: 6    Качают: 0
Скачать торрент
Скачать торрент
Описание торрента

СообщениеДобавлено: 12 янв 2018 

Название: Плохой лейтенант
Оригинальное название: The Bad Lieutenant: Port of Call New Orleans
Год выхода: 2009
Жанр: Драма, криминал
Режиссер: Вернер Херцог
В ролях: Николас Кейдж, Ева Мендес, Вэл Килмер, Файруза Балк, Иксзибит, Шон Хэтоси, Дженнифер Кулидж, Том Бауэр, Вонди Куртис-Холл, Брэд Дуриф


О фильме:
Терренс МакДонах — потомственный полицейский, живущий в Новом Орлеане. Его уважает начальство и коллеги. Но у Терренса есть и «другое лицо». Он замешан в воровстве и торговле наркотиками, да и сам является наркоманом. Пристрастия этого «плохого полицейского» — секс и азартные игры. Начальство поручает МакДонаху новое сложное дело — расследовать зверское убийство сенегальских эмигрантов. Сможет ли лейтенант совладать со своей «темной, порочной» стороной и выполнить задание?





Страна: США
Студия: Millennium Films, Polsky Films
Продолжительность: 02:02:09
Перевод: профессиональный (многоголосый)
Субтитры: русские, английские


Формат: MKV
Качество: BDRemux 1080p
Видео: MPEG-4 AVC / 19987 kbps / 1920x1080 / 23.976 fps
Звук:
Аудио 1: Русский, Dolby Digital Audio, 5.1, 48 KHz, 640 kbps - Многоголосый (Blu-Ray)
Аудио 2: Английский, Dolby Digital Audio, 5.1, 48 KHz, 640 kbps - Оригинал
Format : Matroska
Format version : Version 2
File size : 18.1 GiB
Duration : 2 h 2 min
Overall bit rate mode : Variable
Overall bit rate : 21.2 Mb/s
Movie name : The Bad Lieutenant: Port of Call New Orleans
Encoded date : UTC 2018-01-10 20:18:07
Writing application : mkvmerge v4.9.1 ('Ich will') сборка от Jul 11 2011 23:53:15
Writing library : libebml v1.2.1 + libmatroska v1.1.1
Video
ID : 1
Format : AVC
Format/Info : Advanced Video Codec
Format profile : High@L4.1
Format settings, CABAC : Yes
Format settings, RefFrames : 4 frames
Muxing mode : Container profile=@0.0
Codec ID : V_MPEG4/ISO/AVC
Duration : 2 h 2 min
Bit rate mode : Variable
Bit rate : 19.5 Mb/s
Maximum bit rate : 32.0 Mb/s
Width : 1 920 pixels
Height : 1 080 pixels
Display aspect ratio : 16:9
Frame rate mode : Constant
Frame rate : 23.976 (24000/1001) FPS
Color space : YUV
Chroma subsampling : 4:2:0
Bit depth : 8 bits
Scan type : Progressive
Bits/(Pixel*Frame) : 0.393
Stream size : 16.7 GiB (92%)
Title : Плохой лейтенант
Language : English
Default : Yes
Forced : No
Color range : Limited
Color primaries : BT.709
Transfer characteristics : BT.709
Matrix coefficients : BT.709
Audio #1
ID : 2
Format : AC-3
Format/Info : Audio Coding 3
Format settings, Endianness : Big
Codec ID : A_AC3
Duration : 2 h 2 min
Bit rate mode : Constant
Bit rate : 640 kb/s
Channel(s) : 6 channels
Channel positions : Front: L C R, Side: L R, LFE
Sampling rate : 48.0 kHz
Frame rate : 31.250 FPS (1536 SPF)
Bit depth : 16 bits
Compression mode : Lossy
Stream size : 559 MiB (3%)
Title : Профессиональный (многоголосый, закадровый)
Language : Russian
Service kind : Complete Main
Default : Yes
Forced : No
Audio #2
ID : 3
Format : AC-3
Format/Info : Audio Coding 3
Format settings, Endianness : Big
Codec ID : A_AC3
Duration : 2 h 2 min
Bit rate mode : Constant
Bit rate : 640 kb/s
Channel(s) : 6 channels
Channel positions : Front: L C R, Side: L R, LFE
Sampling rate : 48.0 kHz
Frame rate : 31.250 FPS (1536 SPF)
Bit depth : 16 bits
Compression mode : Lossy
Stream size : 559 MiB (3%)
Title : Оригинал
Language : English
Service kind : Complete Main
Default : No
Forced : No
Text #1
ID : 4
Format : UTF-8
Codec ID : S_TEXT/UTF8
Codec ID/Info : UTF-8 Plain Text
Language : Russian
Default : No
Forced : No
Text #2
ID : 5
Format : UTF-8
Codec ID : S_TEXT/UTF8
Codec ID/Info : UTF-8 Plain Text
Language : English
Default : No
Forced : No
Menu
00:00:00.000 : en:00:00:00.000
00:06:09.035 : en:00:06:09.035
00:17:00.186 : en:00:17:00.186
00:26:41.767 : en:00:26:41.767
00:36:14.589 : en:00:36:14.589
00:48:36.622 : en:00:48:36.622
00:59:06.168 : en:00:59:06.168
01:10:43.364 : en:01:10:43.364
01:22:19.518 : en:01:22:19.518
01:32:07.564 : en:01:32:07.564
01:44:29.388 : en:01:44:29.388
01:50:25.202 : en:01:50:25.202
01:56:47.375 : en:01:56:47.375



   Похожие торренты   Торрент   Размер 
В этой теме нет новых непрочитанных сообщений. Плохой лейтенант / The Bad Lieutenant: Port of Call - New Orleans (2009) BDRemux 1080p | P, A

7 | 7

22.86 ГБ

В этой теме нет новых непрочитанных сообщений. Плохой лейтенант / The Bad Lieutenant: Port of Call New Orleans (2009) BDRip 1080p | P, A

9 | 5

11.21 ГБ

В этой теме нет новых непрочитанных сообщений. Плохой лейтенант / The Bad Lieutenant: Port of Call - New Orleans (2009) BDRip 1080p

16 | 5

4.24 ГБ

В этой теме нет новых непрочитанных сообщений. Плохой лейтенант / The Bad Lieutenant: Port of Call New Orleans (2009) BDRip | A

1 | 0

2.18 ГБ

В этой теме нет новых непрочитанных сообщений. Плохой лейтенант / The Bad Lieutenant: Port of Call New Orleans (2009) HDRip

107 | 6

1.37 ГБ

В этой теме нет новых непрочитанных сообщений. Плохой лейтенант / The Bad Lieutenant Port of Call - New Orleans (2009) DVDRip от RP4 CHG

2 | 24

701.47 МБ

В этой теме нет новых непрочитанных сообщений. Плохой лейтенант / The Bad Lieutenant: Port of Call New Orleans (2009) HDRip от Scarabey | P

31 | 2

748.83 МБ




Вы не можете начинать темы
Вы не можете отвечать на сообщения
Вы не можете редактировать свои сообщения
Вы не можете удалять свои сообщения
Вы не можете добавлять вложения

Перейти:  
 Вход
ppkBB3cker v.2 © 2008-2014 @ PPK
[ Time : 0.028s | 19 Queries | GZIP : Off ]

cron