img image001 image001 image001 image001 image001 image001 image001 image001 image001 image001 image001 image001 image001 image001 image001 image001
Planets Sun Sun Sun
Статистика раздачи
Автор: Nickolas3434 | Размер: 2.17 ГБ | Добавлен: 12 янв 2018
Раздают: 12    Качают: 4
Скачать торрент
Скачать торрент
Описание торрента

СообщениеДобавлено: 12 янв 2018 

Год выпуска: 2007
Оригинальное название: The Messengers
Страна: США
Жанр: ужасы, триллер, драма
Возраст: 18+
Режиссер: Дэнни Пан, Оксид Пан
В ролях: Кристен Стюарт, Дилан МакДермотт, Пенелопа Энн Миллер, Джон Корбетт, Ивэн Тернер, Теодор Тернер, Уильям Б. Дэвис, Брент Бриско, Дастин Миллиган, Джоделль Ферланд, Майкл Дэйнджерфилд, Татьяна Маслани, Ширли МакКуин, Анна Хэган, Блейн Харт, Грэхэм Белл, Кейтлин МакМиллан, Питер Скаулар, Роберт Бенц
Описание: Cемья Соломон оставляет свою размеренную жизнь в Чикаго ради того, чтобы пожить на уединенной ферме в Северной Дакоте. Среди усыпанных подсолнухами идиллических полей, шестнадцатилетняя Джесс очень скоро понимает, каким кошмаром может обернуться уединение. Сразу после переезда, Джесс и ее трехлетний брат Бен видят зловещих призраков, которых никто кроме них не замечает.
Когда призраки начинают вести себя агрессивно, у родителей появляются сомнения в психическом здоровье Джесс. Ее небезоблачное прошлое сталкивается с прошлым тех, кто когда-то жил в этом доме — опасное соседство для раздираемого противоречиями подростка. Ей не верят те, кого она отчаянно пытается предупредить, пока еще не слишком поздно…
Продолжительность: 01:30:26
Перевод: Дублированный
Оригинальная дорожка: нет
Релиз-группа:
Качество видео: BDRip 720p Исходник: Blu-Ray Remux (1080p) Формат: mp4
Видео кодек: MPEG-4 AVC Аудио кодек: AAC
Видео: 1280x692 (1.85:1) at 23.976 fps, AVC at 3 272 kbps avg, 0.154 bit/pixel
Аудио №1 Rus: 48.0 KHz, AAC, 2 ch, 160.0 Kbps
Субтитры: нет
Навигация по главам: есть
Размер: 2.17 GiB
avs [info]: 1280x692p 1:1 @ 24000/1001 fps (cfr)
x264 [info]: using SAR=1/1
x264 [info]: using cpu capabilities: MMX2 SSE2Fast SSSE3 Cache64
x264 [info]: profile High, level 4.1
x264 [info]: frame I:1023 Avg QP:15.95 size:130719
x264 [info]: frame P:26140 Avg QP:19.15 size: 37881
x264 [info]: frame B:102941 Avg QP:20.91 size: 10639
x264 [info]: consecutive B-frames: 1.7% 2.6% 3.9% 16.8% 13.8% 44.3% 7.5% 6.3% 3.0%
x264 [info]: mb I I16..4: 6.3% 75.5% 18.2%
x264 [info]: mb P I16..4: 1.0% 7.9% 1.2% P16..4: 45.1% 17.8% 17.9% 0.5% 0.2% skip: 8.5%
x264 [info]: mb B I16..4: 0.0% 0.6% 0.1% B16..8: 44.2% 7.4% 1.6% direct: 4.2% skip:41.9% L0:45.3% L1:48.0% BI: 6.7%
x264 [info]: 8x8 transform intra:77.4% inter:66.7%
x264 [info]: coded y,uvDC,uvAC intra: 80.1% 78.2% 53.1% inter: 21.7% 22.4% 3.2%
x264 [info]: i16 v,h,dc,p: 36% 14% 9% 41%
x264 [info]: i8 v,h,dc,ddl,ddr,vr,hd,vl,hu: 19% 12% 20% 6% 9% 10% 8% 8% 8%
x264 [info]: i4 v,h,dc,ddl,ddr,vr,hd,vl,hu: 38% 11% 12% 5% 9% 8% 7% 6% 5%
x264 [info]: i8c dc,h,v,p: 55% 15% 20% 9%
x264 [info]: Weighted P-Frames: Y:5.3% UV:2.2%
x264 [info]: ref P L0: 45.3% 10.3% 18.1% 7.0% 6.1% 4.4% 4.1% 2.2% 2.4% 0.1% 0.0%
x264 [info]: ref B L0: 72.1% 11.9% 6.6% 3.3% 2.4% 2.1% 1.2% 0.4%
x264 [info]: ref B L1: 93.3% 6.7%
x264 [info]: kb/s:3271.57
encoded 130104 frames, 2.75 fps, 3271.57 kb/s

General
Complete name : ...Poslanniki-2007_KinoGadget.mp4
Format : MPEG-4
Format profile : Base Media
Codec ID : isom (isom)
File size : 2.17 GiB
Duration : 1 h 30 min
Overall bit rate mode : Variable
Overall bit rate : 3 439 kb/s
Movie name : Посланники | KinoGadget
Performer : Дэнни Пан, Оксид Пан
Director : Дэнни Пан / Оксид Пан
Actor : Кристен Стюарт / Дилан МакДермотт / Пенелопа Энн Миллер / Джон Корбетт / Ивэн Тернер / Теодор Тернер / Уильям Б. Дэвис / Брент Бриско / Дастин Миллиган / Джоделль Ферланд / Майкл Дэйнджерфилд / Татьяна Маслани
Screenplay by : Марк Уитон / Тодд Фармер
Producer : Сэм Рэйми / Уильям Шерак / Джейсон Шуман
Genre : Drama, Horror, Thriller
ContentType : Short Film
Recorded date : 2007
Encoded date : UTC 2018-01-10 15:12:27
Tagged date : UTC 2018-01-11 09:26:23
Cover : Yes
ContentRating : mpaa|PG-13|300|
LongDeion : Семья Соломон оставляет свою размеренную жизнь в Чикаго ради того, чтобы пожить на уединенной ферме в Северной Дакоте. Среди усыпанных подсолнухами идиллических полей, шестнадцатилетняя Джесс очень скоро понимает, каким кошмаром может обернуться уединение. Сразу после переезда, Джесс и ее трехлетний брат Бен видят зловещих призраков, которых никто кроме них не замечает.
HDVideo : Yes
Video
ID : 1
Format : AVC
Format/Info : Advanced Video Codec
Format profile : High@L4.1
Format settings : CABAC / 9 Ref Frames
Format settings, CABAC : Yes
Format settings, ReFrames : 9 frames
Codec ID : avc1
Codec ID/Info : Advanced Video Coding
Duration : 1 h 30 min
Bit rate : 3 272 kb/s
Maximum bit rate : 15.4 Mb/s
Width : 1 280 pixels
Height : 692 pixels
Display aspect ratio : 1.85:1
Frame rate mode : Constant
Frame rate : 23.976 (24000/1001) FPS
Color space : YUV
Chroma subsampling : 4:2:0
Bit depth : 8 bits
Scan type : Progressive
Bits/(Pixel*Frame) : 0.154
Stream size : 2.07 GiB (95%)
Writing library : x264 core 152 r2851 ba24899
Encoding settings : cabac=1 / ref=9 / deblock=1:-2:-1 / analyse=0x3:0x133 / me=umh / subme=7 / psy=1 / psy_rd=1.00:0.00 / mixed_ref=1 / me_range=32 / chroma_me=1 / trellis=2 / 8x8dct=1 / cqm=0 / deadzone=21,11 / fast_pskip=0 / chroma_qp_offset=-2 / threads=3 / lookahead_threads=1 / sliced_threads=0 / nr=0 / decimate=1 / interlaced=0 / bluray_compat=0 / constrained_intra=0 / bframes=8 / b_pyramid=2 / b_adapt=2 / b_bias=0 / direct=1 / weightb=1 / open_gop=0 / weightp=2 / keyint=250 / keyint_min=25 / scenecut=40 / intra_refresh=0 / rc_lookahead=60 / rc=crf / mbtree=1 / crf=19.0 / qcomp=0.60 / qpmin=0 / qpmax=69 / qpstep=4 / vbv_maxrate=62500 / vbv_bufsize=78125 / crf_max=0.0 / nal_hrd=none / filler=0 / ip_ratio=1.40 / aq=1:1.00
Encoded date : UTC 2018-01-10 04:19:46
Tagged date : UTC 2018-01-10 15:13:56
Audio
ID : 2
Format : AAC
Format/Info : Advanced Audio Codec
Format profile : LC
Codec ID : mp4a-40-2
Duration : 1 h 30 min
Bit rate mode : Variable
Bit rate : 160 kb/s
Maximum bit rate : 168 kb/s
Channel(s) : 2 channels
Channel positions : Front: L R
Sampling rate : 48.0 kHz
Frame rate : 46.875 FPS (1024 SPF)
Compression mode : Lossy
Stream size : 104 MiB (5%)
Language : Russian
Encoded date : UTC 2018-01-10 04:26:55
Tagged date : UTC 2018-01-10 15:13:56
Menu
00:00:00.000 : Chapter 1
00:05:46.471 : Chapter 2
00:10:49.858 : Chapter 3
00:15:51.492 : Chapter 4
00:18:59.138 : Chapter 5
00:23:08.262 : Chapter 6
00:31:21.546 : Chapter 7
00:37:07.267 : Chapter 8
00:43:41.494 : Chapter 9
00:48:10.137 : Chapter 10
00:53:38.841 : Chapter 11
01:00:08.605 : Chapter 12
01:05:41.020 : Chapter 13
01:10:54.208 : Chapter 14
01:13:26.777 : Chapter 15
01:18:37.171 : Chapter 16



Данный рип предназначен для просмотра на мобильных гаджетах с поддержкой формата mp4



   Похожие торренты   Торрент   Размер 
В этой теме нет новых непрочитанных сообщений. Посланники / The Messengers (2007) BDRip 720p | D, P2, A

106 | 24

3.88 ГБ

В этой теме нет новых непрочитанных сообщений. Посланники / The Messengers (2007) BDRip 720p от FLINTFILMS

0 | 16

2 ГБ

В этой теме нет новых непрочитанных сообщений. Посланники / The Messengers (2007) BDRip от HQCLUB

28 | 5

1.45 ГБ

В этой теме нет новых непрочитанных сообщений. Посланники / The Messengers (2007) BDRip от Dime & HQ-VIDEO

37 | 13

1.46 ГБ

В этой теме нет новых непрочитанных сообщений. Посланники / The Messengers (2007) BDRip 1080p от NNNB | D, P2, A

13 | 1

7.73 ГБ

В этой теме нет новых непрочитанных сообщений. Посланники / The Messengers (2007) BDRip-AVC от Leonardo and Scarabey | D | Лицензия

242 | 30

1.45 ГБ

В этой теме нет новых непрочитанных сообщений. Посланники / The Messengers (2007) HDRip

14 | 3

755.25 МБ




Вы не можете начинать темы
Вы не можете отвечать на сообщения
Вы не можете редактировать свои сообщения
Вы не можете удалять свои сообщения
Вы не можете добавлять вложения

Перейти:  
 Вход
ppkBB3cker v.2 © 2008-2014 @ PPK
[ Time : 0.518s | 19 Queries | GZIP : Off ]

cron