img image001 image001 image001 image001 image001 image001 image001 image001 image001 image001 image001 image001 image001 image001 image001

Planets Sun Sun Sun

COVID-19 - Последняя информация о коронавирусе на сайте Минздрава


Статистика раздачи
Автор: Nickolas3434 | Размер: 5.85 ГБ | Добавлен: 18 янв 2018
Раздают: 7    Качают: 0
Скачать торрент
Скачать торрент
Описание торрента

СообщениеДобавлено: 18 янв 2018 

Информация о фильме
Название: Двойной удар
Оригинальное название: Double Impact
Год выхода: 1991
Жанр: боевик, триллер, драма, криминал
Режиссер: Шелдон Леттич
В ролях: Жан-Клод Ван Дамм, Джеффри Льюис, Алонна Шоу, Коринна Эверсон, Филип Чань, Алан Скарф, Боло Йенг, Энди Армстронг, Ву Фонг Ланг, Питер Малота
О фильме:
Когда-то мафия из Гонконга жестоко и безжалостно расправилась с родителями братьев-близнецов Чеда и Алекса, которых чудом удалось спасти в давней кровавой перестрелке. Судьба раскидала братьев по разные стороны океана: один рос в Калифорнии, другой остался в Гонконге. И вот спустя 25 лет стараниями верного друга их погибших родителей два брата встречаются, чтобы заставить виновников того преступления сильно раскаяться в некогда содеянном.

Страна: США
Продолжительность: 01:49:40
Перевод: Профессиональный дублированный, многоголосый закадровый, профессиональный одноголосый
Файл
Кодек: HEVC x265 10bit
Качество: BDRip-HEVC 1080p
Видео: 1920x1040, 23.976 кадр/сек, 6477 Кбит/сек, (Main 10@L4.1@High) 10bit
Звук:
Аудио1: Русская, AC3 384 Кбит/сек, 6 канала(ов),16bit 48,0 КГц MVO (ОРТ)
Аудио2: Русская, AC3 192 Кбит/сек, 2 канала(ов),16bit 48,0 КГц DUB (Хлопушка)
Аудио3: Русская, AC3 192 Кбит/сек, 2 канала(ов),16bit 48,0 КГц MVO (R5)
Аудио4: Русская, AC3 192 Кбит/сек, 2 канала(ов),16bit 48,0 КГц AVO (Андрей Гаврилов)
Аудио5: English, AC3 192 Кбит/сек, 2 канала(ов),16bit 48,0 КГц
Субтитры: Русские, English
Навигация по главам: Есть
General
Unique ID : 180727198933126900161012415937334725615 (0x87F6CADBF9A0CC88B2E78D9BE4C7CBEF)
Complete name : F:HEVCDouble Impact (1991) BDRip 1080p [HEVC] 10Bit.mkv
Format : Matroska
Format version : Version 4 / Version 2
File size : 5.85 GiB
Duration : 1 h 49 min
Overall bit rate : 7 632 kb/s
Movie name : rip_by_Cthulhu
Encoded date : UTC 2018-01-15 21:10:12
Writing application : mkvmerge v18.0.0 ('Apricity') 64-bit
Writing library : libebml v1.3.5 + libmatroska v1.4.8
Cover : Yes
Attachments : cover.jpg
Video
ID : 1
Format : HEVC
Format/Info : High Efficiency Video Coding
Format profile : Main 10@L4.1@High
Codec ID : V_MPEGH/ISO/HEVC
Duration : 1 h 49 min
Bit rate : 6 477 kb/s
Width : 1 920 pixels
Height : 1 040 pixels
Display aspect ratio : 1.85:1
Frame rate mode : Constant
Frame rate : 23.976 (24000/1001) FPS
Color space : YUV
Chroma subsampling : 4:2:0
Bit depth : 10 bits
Bits/(Pixel*Frame) : 0.135
Stream size : 4.96 GiB (85%)
Writing library : x265 2.6+27-2f3c4158cf35:[Windows][GCC 7.2.0][64 bit] 10bit
Encoding settings : cpuid=1050111 / frame-threads=5 / numa-pools=4 / wpp / no-pmode / no-pme / no-psnr / no-ssim / log-level=3 / input-csp=1 / input-res=1920x1040 / interlace=0 / total-frames=0 / level-idc=41 / high-tier=1 / uhd-bd=0 / ref=5 / allow-non-conformance / no-repeat-headers / annexb / no-aud / no-hrd / info / hash=0 / no-temporal-layers / open-gop / min-keyint=24 / keyint=240 / gop-lookahead=0 / bframes=10 / b-adapt=2 / b-pyramid / bframe-bias=0 / rc-lookahead=40 / lookahead-slices=6 / scenecut=40 / radl=0 / no-intra-refresh / ctu=64 / min-cu-size=8 / no-rect / no-amp / max-tu-size=32 / tu-inter-depth=3 / tu-intra-depth=3 / limit-tu=0 / rdoq-level=0 / dynamic-rd=0.00 / no-ssim-rd / signhide / no-tskip / nr-intra=0 / nr-inter=0 / no-constrained-intra / no-strong-intra-smoothing / max-merge=3 / limit-refs=3 / no-limit-modes / me=3 / subme=7 / merange=57 / temporal-mvp / weightp / weightb / no-analyze-src-pics / deblock=-3:-3 / no-sao / no-sao-non-deblock / rd=4 / no-early-skip / rskip / no-fast-intra / no-tskip-fast / no-cu-lossless / no-b-intra / no-splitrd-skip / rdpenalty=0 / psy-rd=1.50 / psy-rdoq=0.00 / no-rd-refine / no-lossless / cbqpoffs=0 / crqpoffs=0 / rc=crf / crf=19.2 / qcomp=0.60 / qpstep=4 / stats-write=0 / stats-read=0 / vbv-maxrate=50000 / vbv-bufsize=35714 / vbv-init=0.9 / crf-max=0.0 / crf-min=0.0 / ipratio=1.40 / pbratio=1.30 / aq-mode=1 / aq-strength=0.80 / cutree / zone-count=0 / no-strict-cbr / qg-size=32 / no-rc-grain / qpmax=69 / qpmin=0 / no-const-vbv / sar=1 / overscan=0 / videoformat=5 / range=0 / colorprim=2 / transfer=2 / colormatrix=2 / chromaloc=0 / display-window=0 / max-cll=0,0 / min-luma=0 / max-luma=1023 / log2-max-poc-lsb=8 / vui-timing-info / vui-hrd-info / slices=1 / no-opt-qp-pps / no-opt-ref-list-length-pps / no-multi-pass-opt-rps / scenecut-bias=0.05 / no-opt-cu-delta-qp / no-aq-motion / no-hdr / no-hdr-opt / no-dhdr10-opt / analysis-save=(null) / analysis-load=(null) / analysis-reuse-level=5 / scale-factor=0 / refine-intra=0 / refine-inter=0 / refine-mv=0 / no-limit-sao / ctu-info=0 / no-lowpass-dct / refine-mv-type=0 / copy-pic=1
Language : English
Default : Yes
Forced : No
Color range : Full
Audio #1
ID : 2
Format : AC-3
Format/Info : Audio Coding 3
Format settings, Endianness : Big
Codec ID : A_AC3
Duration : 1 h 49 min
Bit rate mode : Constant
Bit rate : 384 kb/s
Channel(s) : 6 channels
Channel positions : Front: L C R, Side: L R, LFE
Sampling rate : 48.0 kHz
Frame rate : 31.250 FPS (1536 SPF)
Bit depth : 16 bits
Compression mode : Lossy
Stream size : 301 MiB (5%)
Title : MVO (ОРТ)
Language : Russian
Service kind : Complete Main
Default : Yes
Forced : No
Audio #2
ID : 3
Format : AC-3
Format/Info : Audio Coding 3
Format settings, Endianness : Big
Codec ID : A_AC3
Duration : 1 h 49 min
Bit rate mode : Constant
Bit rate : 192 kb/s
Channel(s) : 2 channels
Channel positions : Front: L R
Sampling rate : 48.0 kHz
Frame rate : 31.250 FPS (1536 SPF)
Bit depth : 16 bits
Compression mode : Lossy
Stream size : 151 MiB (3%)
Title : DUB (Хлопушка)
Language : Russian
Service kind : Complete Main
Default : No
Forced : No
Audio #3
ID : 4
Format : AC-3
Format/Info : Audio Coding 3
Format settings, Endianness : Big
Codec ID : A_AC3
Duration : 1 h 49 min
Bit rate mode : Constant
Bit rate : 192 kb/s
Channel(s) : 2 channels
Channel positions : Front: L R
Sampling rate : 48.0 kHz
Frame rate : 31.250 FPS (1536 SPF)
Bit depth : 16 bits
Compression mode : Lossy
Stream size : 151 MiB (3%)
Title : MVO (R5)
Language : Russian
Service kind : Complete Main
Default : No
Forced : No
Audio #4
ID : 5
Format : AC-3
Format/Info : Audio Coding 3
Format settings, Endianness : Big
Codec ID : A_AC3
Duration : 1 h 49 min
Bit rate mode : Constant
Bit rate : 192 kb/s
Channel(s) : 2 channels
Channel positions : Front: L R
Sampling rate : 48.0 kHz
Frame rate : 31.250 FPS (1536 SPF)
Bit depth : 16 bits
Compression mode : Lossy
Stream size : 151 MiB (3%)
Title : AVO (Андрей Гаврилов)
Language : Russian
Service kind : Complete Main
Default : No
Forced : No
Audio #5
ID : 6
Format : AC-3
Format/Info : Audio Coding 3
Format settings, Endianness : Big
Codec ID : A_AC3
Duration : 1 h 49 min
Bit rate mode : Constant
Bit rate : 192 kb/s
Channel(s) : 2 channels
Channel positions : Front: L R
Sampling rate : 48.0 kHz
Frame rate : 31.250 FPS (1536 SPF)
Bit depth : 16 bits
Compression mode : Lossy
Stream size : 151 MiB (3%)
Language : English
Service kind : Complete Main
Default : No
Forced : No
Text #1
ID : 7
Format : UTF-8
Codec ID : S_TEXT/UTF8
Codec ID/Info : UTF-8 Plain Text
Duration : 1 h 42 min
Bit rate : 44 b/s
Count of elements : 628
Stream size : 33.4 KiB (0%)
Language : Russian
Default : No
Forced : No
Text #2
ID : 8
Format : UTF-8
Codec ID : S_TEXT/UTF8
Codec ID/Info : UTF-8 Plain Text
Duration : 1 h 48 min
Bit rate : 30 b/s
Count of elements : 858
Stream size : 24.0 KiB (0%)
Language : English
Default : No
Forced : No
Menu
00:00:00.000 : :Глава 1
00:03:22.035 : :Глава 2
00:09:45.334 : :Глава 3
00:13:07.161 : :Глава 4
00:21:00.050 : :Глава 5
00:29:03.616 : :Глава 6
00:37:33.251 : :Глава 7
00:42:20.955 : :Глава 8
00:50:04.376 : :Глава 9
00:58:54.656 : :Глава 10
01:07:32.131 : :Глава 11
01:17:58.548 : :Глава 12
01:23:50.066 : :Глава 13
01:28:48.072 : :Глава 14
01:34:14.398 : :Глава 15
01:44:12.621 : :Глава 16
01:49:40.323 : :Глава 17


Релиз от: Cthulhu

   Похожие торренты   Торрент   Размер 
В этой теме нет новых непрочитанных сообщений. Двойной удар / Double Impact (1991) HDRip от Scarabey | D

551 | 10

1.45 ГБ

В этой теме нет новых непрочитанных сообщений. Двойной удар / Double Impact (1991) HDRip от Scarabey | D

49 | 2

746.87 МБ

В этой теме нет новых непрочитанных сообщений. Двойной просчет / Double Jeopardy (1999) WEBRip 1080p | P, P2, A

24 | 4

8.49 ГБ

В этой теме нет новых непрочитанных сообщений. Терминатор 2: Судный день / Terminator 2: Judgment Day (1991) BDRip-HEVC 1080p от HEVC CLUB | P | Extended Special Edition | Remastered

15 | 2

8.92 ГБ

В этой теме нет новых непрочитанных сообщений. Двойной дракон / Double Dragon (1994) BDRip | P, A

89 | 19

2.31 ГБ

В этой теме нет новых непрочитанных сообщений. Двойной дракон / Double Dragon (1994) BDRip от Sem-te | P, A

2 | 1

2.23 ГБ

В этой теме нет новых непрочитанных сообщений. Максимальный удар / Maximum Impact (2017) WEB-DL 1080p | iTunes

0 | 0

3.62 ГБ




Вы не можете начинать темы
Вы не можете отвечать на сообщения
Вы не можете редактировать свои сообщения
Вы не можете удалять свои сообщения
Вы не можете добавлять вложения

Перейти:  
Контактная информация: rstracker[пёсик]yandex.ru
cron
 Вход
ppkBB3cker v.2 © 2008-2014 @ PPK
[ Time : 0.042s | 15 Queries | GZIP : Off ]

cron