img image001 image001 image001 image001 image001 image001 image001 image001 image001 image001 image001 image001 image001 image001 image001

Planets Sun Sun Sun

COVID-19 - Последняя информация о коронавирусе на сайте Минздрава


Статистика раздачи
Автор: Nickolas3434 | Размер: 1.9 ГБ | Добавлен: 22 янв 2018
Раздают: 0    Качают: 0
Скачать торрент
Скачать торрент
Описание торрента

СообщениеДобавлено: 22 янв 2018 

Название: Гнев земли
Оригинальное название: Something Beneath
Год выпуска: 2007
Выпущено: Канада, Buffalo Gal Pictures, Hallmark Entertainment
Жанр: Ужасы
Режиссер: Дэвид Уиннинг
В ролях: Натали Браун, Кевин Сорбо, Питер МакНейл, Томас Кинэн, Брендан Бейзер, Фрэнк Эдамсон, Гордон Тэннер, Бретт Донахью, Пейдж Бэннистер, Бриттани Скоуби
Описание:
Крупная строительная компания планирует возведение огромного жилого комплекса. Но ученые предупреждают руководство, что в этом районе и так в последнее время резко ухудшилась экологическая обстановка. Служба охраны выставляет служителей науки подальше за ворота… Напрасно! Природа позаботится о своей сохранности сама, но при этом пострадают многие…


Продолжительность: 01:30:05
Перевод: Профессиональный многоголосый
Субтитры: Английские
За исходник спасибо: mzma
Файл
Формат: MKV
Качество: WEB-DLRip-AVC
Видео: AVC, 1024x576 (16:9), 23.976 fps, 2120 Kbps, 0.150 bit/pixel
Аудио 1: AC-3, 48.0 KHz, 5.1 ch, 448 Kbps, CBR (Russian)
Аудио 2: AC-3, 48.0 KHz, 5.1 ch, 448 Kbps, CBR (ENG)
General
Unique ID : 229925924892676005598097008855244478769 (0xACFA1F53E9F12C19851DBF3715A21931)
Complete name : D:Something.Beneath.2007.WEB-DLRip.AVC.ExKinoRay.mkv
Format : Matroska
Format version : Version 2
File size : 1.90 GiB
Duration : 1 h 30 min
Overall bit rate : 3 018 kb/s
Movie name : Something Beneath (2007) from ExKinoRay
Encoded date : UTC 2018-01-17 02:52:17
Writing application : mkvmerge v5.6.0 ('Kenya Kane') built on May 27 2012 16:44:04
Writing library : libebml v1.2.3 + libmatroska v1.3.0
Video
ID : 1
Format : AVC
Format/Info : Advanced Video Codec
Format profile : High@L4.1
Format settings, CABAC : Yes
Format settings, ReFrames : 12 frames
Codec ID : V_MPEG4/ISO/AVC
Duration : 1 h 30 min
Bit rate : 2 120 kb/s
Width : 1 024 pixels
Height : 576 pixels
Display aspect ratio : 16:9
Frame rate mode : Constant
Frame rate : 23.976 (23976/1000) FPS
Color space : YUV
Chroma subsampling : 4:2:0
Bit depth : 8 bits
Scan type : Progressive
Bits/(Pixel*Frame) : 0.150
Stream size : 1.30 GiB (68%)
Title : Enigma
Writing library : x264 core 152 r2851 ba24899
Encoding settings : cabac=1 / ref=12 / deblock=1:-2:-2 / analyse=0x3:0x113 / me=umh / subme=10 / psy=1 / psy_rd=1.00:0.10 / mixed_ref=1 / me_range=32 / chroma_me=1 / trellis=2 / 8x8dct=1 / cqm=0 / deadzone=21,11 / fast_pskip=0 / chroma_qp_offset=-3 / threads=12 / lookahead_threads=3 / sliced_threads=0 / nr=0 / decimate=0 / interlaced=0 / bluray_compat=0 / constrained_intra=0 / bframes=10 / b_pyramid=2 / b_adapt=2 / b_bias=0 / direct=3 / weightb=1 / open_gop=0 / weightp=2 / keyint=240 / keyint_min=23 / scenecut=40 / intra_refresh=0 / rc_lookahead=40 / rc=2pass / mbtree=0 / bitrate=2120 / ratetol=1.0 / qcomp=0.60 / qpmin=0 / qpmax=51 / qpstep=4 / cplxblur=20.0 / qblur=0.5 / vbv_maxrate=50000 / vbv_bufsize=62500 / nal_hrd=none / filler=0 / ip_ratio=1.40 / pb_ratio=1.30 / aq=1:1.00
Language : English
Default : Yes
Forced : No
Color range : Limited
Color primaries : BT.709
Transfer characteristics : BT.709
Matrix coefficients : BT.709
Audio #1
ID : 2
Format : AC-3
Format/Info : Audio Coding 3
Mode extension : CM (complete main)
Format settings, Endianness : Big
Codec ID : A_AC3
Duration : 1 h 30 min
Bit rate mode : Constant
Bit rate : 448 kb/s
Channel(s) : 6 channels
Channel positions : Front: L C R, Side: L R, LFE
Sampling rate : 48.0 kHz
Frame rate : 31.250 FPS (1536 spf)
Compression mode : Lossy
Stream size : 289 MiB (15%)
Title : MVO
Language : Russian
Default : Yes
Forced : No
Audio #2
ID : 3
Format : AC-3
Format/Info : Audio Coding 3
Mode extension : CM (complete main)
Format settings, Endianness : Big
Codec ID : A_AC3
Duration : 1 h 30 min
Bit rate mode : Constant
Bit rate : 448 kb/s
Channel(s) : 6 channels
Channel positions : Front: L C R, Side: L R, LFE
Sampling rate : 48.0 kHz
Frame rate : 31.250 FPS (1536 spf)
Compression mode : Lossy
Stream size : 289 MiB (15%)
Language : English
Default : No
Forced : No
Text
ID : 4
Format : UTF-8
Codec ID : S_TEXT/UTF8
Codec ID/Info : UTF-8 Plain Text
Language : English
Default : No
Forced : No


Релиз от:
Автор релиза:

   Похожие торренты   Торрент   Размер 
В этой теме нет новых непрочитанных сообщений. Гнев земли / Something Beneath (2007) WEB-DLRip 720p от KORSAR | P

0 | 0

4.15 ГБ

В этой теме нет новых непрочитанных сообщений. Гнев / Heat (1986) WEB-DLRip-AVC | A, P

39 | 7

2.27 ГБ

В этой теме нет новых непрочитанных сообщений. Ангел Света / Gabriel (2007) WEB-DLRip-AVC от ExKinoRay | P

29 | 0

745.86 МБ

В этой теме нет новых непрочитанных сообщений. Гнев / Ikari (2016) BDRip-AVC от ExKinoRay | A

4 | 2

2.62 ГБ

В этой теме нет новых непрочитанных сообщений. Из-под земли / Unearthed (2007) HDRip-AVC | P

0 | 0

744.37 МБ

В этой теме нет новых непрочитанных сообщений. Пядь земли (1964) DVDRip-AVC от ExKinoRay

343 | 43

1.65 ГБ

В этой теме нет новых непрочитанных сообщений. Я есть гнев / I Am Wrath (2016) WEB-DLRip | L

1483 | 152

1.36 ГБ




Вы не можете начинать темы
Вы не можете отвечать на сообщения
Вы не можете редактировать свои сообщения
Вы не можете удалять свои сообщения
Вы не можете добавлять вложения

Перейти:  
Контактная информация: rstracker[пёсик]yandex.ru
 Вход
ppkBB3cker v.2 © 2008-2014 @ PPK
[ Time : 0.037s | 16 Queries | GZIP : Off ]

cron