img image001 image001 image001 image001 image001 image001 image001 image001 image001 image001 image001 image001 image001 image001 image001 image001

Planets Sun Sun Sun
Статистика раздачи
Автор: Nickolas3434 | Размер: 13.97 ГБ | Добавлен: 22 янв 2018
Раздают: 0    Качают: 0
Скачать торрент
Скачать торрент
Описание торрента

СообщениеДобавлено: 22 янв 2018 

Информация о фильме
Название: Сильнее
Оригинальное название: Stronger
Год выхода: 2017
Жанр: Драма, биография
Режиссер: Дэвид Гордон Грин
В ролях: Джейк Джилленхол, Татьяна Маслани, Миранда Ричардсон, Рик Лэйн, Нэйт Ричман, Ленни Кларк, Клэнси Браун, Дэнни МакКарти
О фильме:
В главной роли основанного на реальных событиях фильма «Сильнее» Джейк Джилленхол, играющий Джеффа Баумана, рабочего из Бостона, который участвовал в марафоне 2013 во время взрыва и трагически потерял обе ноги. Придя в сознание, Джефф смог помочь правоохранителям идентифицировать одного из террористов, но его собственная битва только началась. Джефф пробует на прочность семейные связи и становится гордостью общественности, преодолев враждебность и превратившись в живое воплощение силы Бостона.

Страна: США
Студия: Nine Stories Productions
Продолжительность: 01:58:54
Перевод: Профессиональный многоголосый | iTunes
Файл
Качество: BDRip 1080p
Видео: MPEG-4 AVC, 1920x804, 15.8 Mbit/s, 23.976 fps
Звук:
Аудио #01: 48 kHz, AC3, 5.1, 384 Kbps | iTunes | RUS |
Аудио #02: 48 kHz, AC3, 5.1, 640 Kbps | Оригинал | ENG |
Субтитры: Русские (full), английские

General
Unique ID : 182999881946002772433091976592465579090 (0x89AC7EC86FAA52CEE1576A438633CC52)
Complete name : G:VideoSSDStronger.2017.BDRip.1080p.ExKinoRay.mkv
Format : Matroska
Format version : Version 4 / Version 2
File size : 14.0 GiB
Duration : 1 h 58 min
Overall bit rate : 16.8 Mb/s
Movie name : Stronger 2017 from ExKinoRay
Encoded date : UTC 2018-01-19 10:53:25
Writing application : mkvmerge v20.0.0 ('I Am The Sun') 64-bit
Writing library : libebml v1.3.5 + libmatroska v1.4.8
Video
ID : 1
Format : AVC
Format/Info : Advanced Video Codec
Format profile : High@L4.1
Format settings : CABAC / 4 Ref Frames
Format settings, CABAC : Yes
Format settings, ReFrames : 4 frames
Codec ID : V_MPEG4/ISO/AVC
Duration : 1 h 58 min
Bit rate : 15.8 Mb/s
Width : 1 920 pixels
Height : 804 pixels
Display aspect ratio : 2.40:1
Frame rate mode : Constant
Frame rate : 23.976 (24000/1001) FPS
Color space : YUV
Chroma subsampling : 4:2:0
Bit depth : 8 bits
Scan type : Progressive
Bits/(Pixel*Frame) : 0.427
Stream size : 13.1 GiB (94%)
Writing library : x264 core 142 r2431+42 c69a006 tMod [8-bit@4:2:0 X86_64]
Encoding settings : cabac=1 / ref=4 / deblock=1:-3:-3 / analyse=0x3:0x113 / me=umh / subme=10 / psy=1 / fade_compensate=0.00 / psy_rd=1.00:0.05 / mixed_ref=1 / me_range=48 / chroma_me=1 / trellis=2 / 8x8dct=1 / cqm=0 / deadzone=21,11 / fast_pskip=0 / chroma_qp_offset=-2 / threads=12 / lookahead_threads=2 / sliced_threads=0 / nr=0 / decimate=1 / interlaced=0 / bluray_compat=0 / constrained_intra=0 / fgo=0 / bframes=8 / b_pyramid=2 / b_adapt=2 / b_bias=0 / direct=3 / weightb=1 / open_gop=0 / weightp=2 / keyint=250 / keyint_min=23 / scenecut=40 / intra_refresh=0 / rc_lookahead=40 / rc=crf / mbtree=0 / crf=19.0000 / qcomp=0.60 / qpmin=0:0:0 / qpmax=69:69:69 / qpstep=4 / vbv_maxrate=50000 / vbv_bufsize=45000 / crf_max=0.0 / nal_hrd=none / filler=0 / ip_ratio=1.40 / pb_ratio=1.30 / aq=3:1.00 / aq-sensitivity=10.00 / aq-factor=1.00:1.00:1.00 / aq2=0 / aq3=0
Language : English
Default : Yes
Forced : No
Color range : Limited
Matrix coefficients : BT.709
Audio #1
ID : 2
Format : AC-3
Format/Info : Audio Coding 3
Codec ID : A_AC3
Duration : 1 h 58 min
Bit rate mode : Constant
Bit rate : 384 kb/s
Channel(s) : 6 channels
Channel positions : Front: L C R, Side: L R, LFE
Sampling rate : 48.0 kHz
Frame rate : 31.250 FPS (1536 SPF)
Bit depth : 16 bits
Compression mode : Lossy
Stream size : 326 MiB (2%)
Title : iTunes
Language : Russian
Service kind : Complete Main
Default : Yes
Forced : No
Audio #2
ID : 3
Format : AC-3
Format/Info : Audio Coding 3
Codec ID : A_AC3
Duration : 1 h 58 min
Bit rate mode : Constant
Bit rate : 640 kb/s
Channel(s) : 6 channels
Channel positions : Front: L C R, Side: L R, LFE
Sampling rate : 48.0 kHz
Frame rate : 31.250 FPS (1536 SPF)
Bit depth : 16 bits
Compression mode : Lossy
Stream size : 544 MiB (4%)
Title : Original
Language : English
Service kind : Complete Main
Default : No
Forced : No
Text #1
ID : 4
Format : UTF-8
Codec ID : S_TEXT/UTF8
Codec ID/Info : UTF-8 Plain Text
Duration : 1 h 51 min
Bit rate : 113 b/s
Count of elements : 1980
Stream size : 93.3 KiB (0%)
Title : Full
Language : Russian
Default : No
Forced : No
Text #2
ID : 5
Format : UTF-8
Codec ID : S_TEXT/UTF8
Codec ID/Info : UTF-8 Plain Text
Duration : 1 h 51 min
Bit rate : 71 b/s
Count of elements : 2011
Stream size : 58.1 KiB (0%)
Title : Full
Language : English
Default : No
Forced : No
Text #3
ID : 6
Format : UTF-8
Codec ID : S_TEXT/UTF8
Codec ID/Info : UTF-8 Plain Text
Duration : 1 h 51 min
Bit rate : 82 b/s
Count of elements : 2224
Stream size : 67.5 KiB (0%)
Title : SDH
Language : English
Default : No
Forced : No
Menu
00:00:00.000 : en:00:00:00.000
00:09:11.333 : en:00:09:11.333
00:14:41.167 : en:00:14:41.167
00:17:22.583 : en:00:17:22.583
00:27:37.375 : en:00:27:37.375
00:32:48.542 : en:00:32:48.542
00:41:39.667 : en:00:41:39.667
00:49:36.542 : en:00:49:36.542
01:01:10.208 : en:01:01:10.208
01:10:13.417 : en:01:10:13.417
01:16:42.583 : en:01:16:42.583
01:36:33.125 : en:01:36:33.125

Релиз от: Автор релиза:
Подпишись на меня, кликни по картинке > :



   Похожие торренты   Торрент   Размер 
В этой теме нет новых непрочитанных сообщений. Сильнее / Stronger (2017) BDRip от MegaPeer | iTunes

126 | 3

1.41 ГБ

В этой теме нет новых непрочитанных сообщений. Сильнее / Stronger (2017) BDRip-AVC от HELLYWOOD | iTunes

35 | 1

2.12 ГБ

В этой теме нет новых непрочитанных сообщений. Сильнее / Stronger (2017) BDRip от MegaPeer | iTunes

14 | 0

748.58 МБ

В этой теме нет новых непрочитанных сообщений. Сильнее / Stronger (2017) BDRip-AVC от HELLYWOOD | iTunes

26 | 0

1.4 ГБ

В этой теме нет новых непрочитанных сообщений. Сильнее / Stronger (2017) BDRip 720p от k.e.n & MegaPeer | iTunes

6 | 0

4.37 ГБ

В этой теме нет новых непрочитанных сообщений. Сильнее / Stronger (2017) BDRip 720p от Scarabey | iTunes

11 | 1

7.39 ГБ

В этой теме нет новых непрочитанных сообщений. Сильнее / Stronger (2017) HDRip | iTunes

0 | 0

2.05 ГБ




Вы не можете начинать темы
Вы не можете отвечать на сообщения
Вы не можете редактировать свои сообщения
Вы не можете удалять свои сообщения
Вы не можете добавлять вложения

Перейти:  
 Вход
ppkBB3cker v.2 © 2008-2014 @ PPK
[ Time : 0.040s | 18 Queries | GZIP : Off ]

cron