img image001 image001 image001 image001 image001 image001 image001 image001 image001 image001 image001 image001 image001 image001 image001

Planets Sun Sun Sun

COVID-19 - Последняя информация о коронавирусе на сайте Минздрава


Статистика раздачи
Автор: Nickolas3434 | Размер: 2.71 ГБ | Добавлен: 28 янв 2018
Раздают: 1    Качают: 0
Скачать торрент
Скачать торрент
Описание торрента

СообщениеДобавлено: 28 янв 2018 

Информация о фильме
Наименование: Рождество в Эль-Камино
Оригинальное наименование: El Camino Christmas
Произведено: США
Категория: комедия
Режиссер постановщик: Дэвид Е. Талберт
В главных ролях: Дэкс Шепард, Кертвуд Смит, Люк Граймс, Эмилио Ривера, Кимберли Куинн, Купер Торнтон, Шэрон Мэдден, Мишель Майлетт, Винсент Д Онофрио, Джон Пози
О фильме: В центре сюжета - парень, попавший накануне Рождества в нелепую ситуацию. Главный герой оказывается запертым в магазине спиртного вместе с ещё пятью неудачниками.

Файл
Качество: WEBRip 720p
Видео данные: MKV, 1280x536 (2:40:1), 23.976 fps, 4000 Кбит/с
Аудио данные: AC3, 2 ch, 384 Кбит/с
Перевод: Любительский многоголосый (GreenРай Studio)
Продолжительность: 01:29:50
Над релизом работали:
Состав дикторов: Анастасия Гайдаржи, Игорь Хрусталёв, Андрей Данилко
Руководитель проекта и координатор: Евгений Овчаренко
Организатор и координатор: Никита Марков
Пиар менеджер студии: Игорь Обухов
Техническая поддержка: Александр Методий
General
Unique ID : 206601805014911055081165941209473914345 (0x9B6E0F6ECA2B4FBFB986CEEB464E95E9)
Complete name : D:ВидеоEl.Camino.Christmas.2017.P.WEB-DL.720p.GreenРай Studio.mkv
Format : Matroska
Format version : Version 4 / Version 2
File size : 2.71 GiB
Duration : 1h 29mn
Overall bit rate mode : Constant
Overall bit rate : 4 316 Kbps
Encoded date : UTC 2018-01-22 10:29:23
Writing application : mkvmerge v8.3.0 ('Over the Horizon') 64bit
Writing library : libebml v1.3.1 + libmatroska v1.4.2
DURATION : 01:29:50.208000000
NUMBER_OF_FRAMES : 168444
NUMBER_OF_BYTES : 258729984
_STATISTICS_WRITING_APP : mkvmerge v8.3.0 ('Over the Horizon') 64bit
_STATISTICS_WRITING_DATE_UT : 2018-01-22 10:29:23
_STATISTICS_TAGS : BPS DURATION NUMBER_OF_FRAMES NUMBER_OF_BYTES
Video
ID : 1
Format : AVC
Format/Info : Advanced Video Codec
Format profile : Main@L3.1
Format settings, CABAC : Yes
Format settings, ReFrames : 3 frames
Codec ID : V_MPEG4/ISO/AVC
Duration : 1h 29mn
Bit rate mode : Constant
Bit rate : 4 000 Kbps
Width : 1 280 pixels
Height : 536 pixels
Display aspect ratio : 2.40:1
Frame rate mode : Constant
Frame rate : 23.976 fps
Standard : NTSC
Color space : YUV
Chroma subsampling : 4:2:0
Bit depth : 8 bits
Scan type : Progressive
Bits/(Pixel*Frame) : 0.243
Stream size : 2.41 GiB (89%)
Language : English
Default : Yes
Forced : No
Color range : Limited
Audio
ID : 2
Format : AC-3
Format/Info : Audio Coding 3
Mode extension : CM (complete main)
Format settings, Endianness : Big
Codec ID : A_AC3
Duration : 1h 29mn
Bit rate mode : Constant
Bit rate : 384 Kbps
Channel(s) : 2 channels
Channel positions : Front: L R
Sampling rate : 48.0 KHz
Compression mode : Lossy
Stream size : 247 MiB (9%)
Default : Yes
Forced : No

ВНИМАНИЕ! Присутствует реклама!

Релиз от:

   Похожие торренты   Торрент   Размер 
В этой теме нет новых непрочитанных сообщений. Рождество в Эль-Камино / El Camino Christmas (2017) WEBRip | L

18 | 0

1.37 ГБ

В этой теме нет новых непрочитанных сообщений. Рождество в Эль-Камино / El Camino Christmas (2017) WEBRip 1080p | Sub

38 | 1

4.36 ГБ

В этой теме нет новых непрочитанных сообщений. Леди Баг и Супер-Кот (Худшее Рождество) (Спецэпизод) / Miraculous LadyBug: Special Christmas - Pire Noel (Santa Claws) (2016) WEBRip 720p | D

33 | 0

421.73 МБ

В этой теме нет новых непрочитанных сообщений. Рождество с неудачниками / Christmas with the Kranks (2004) WEBRip 1080p | D, P, P2

0 | 1

10.76 ГБ

В этой теме нет новых непрочитанных сообщений. Эрнест спасает Рождество / Ernest Saves Christmas (1988) WEBRip 1080p | A

0 | 0

9.43 ГБ

В этой теме нет новых непрочитанных сообщений. Рождество с семейкой Муди / A Moody Christmas [01-06 из 06] (2012) WEBRip 720р | Кравец

11 | 3

3.38 ГБ

В этой теме нет новых непрочитанных сообщений. Эль Чапо / El Chapo [01х01] (2017) WEBRip 720p | SunshineStudio

0 | 0

2.09 ГБ




Вы не можете начинать темы
Вы не можете отвечать на сообщения
Вы не можете редактировать свои сообщения
Вы не можете удалять свои сообщения
Вы не можете добавлять вложения

Перейти:  
Контактная информация: rstracker[пёсик]yandex.ru
 Вход
ppkBB3cker v.2 © 2008-2014 @ PPK
[ Time : 0.016s | 17 Queries | GZIP : Off ]

cron