img image001 image001 image001 image001 image001 image001 image001 image001 image001 image001 image001 image001 image001 image001 image001

Planets Sun Sun Sun
Статистика раздачи
Автор: Nickolas3434 | Размер: 746.04 МБ | Добавлен: 28 янв 2018
Раздают: 5    Качают: 4
Скачать торрент
Скачать торрент
Описание торрента

СообщениеДобавлено: 28 янв 2018 

Информация о фильме
Название: Призраки Марса
Оригинальное название: Ghosts of Mars
Год выхода: 2001
Жанр: Фантастика, ужасы, боевик
Режиссер: Джон Карпентер
В ролях: Наташа Хенстридж, Айс Кьюб, Джейсон Стэйтем, Клеа ДюВалл, Пэм Гриер, Джоанна Кэссиди, Ричард Цетрон, Розмари Форсайт, Лайам Вейт, Дуан Дэвис, Лобо Себастьян, Родни А. Грант, Питер Джейсон, Ванда Де Хесус, Даг МакГрат, Рик Эдельштейн, Роберт Кэрредин, Майкл Кравич, Эйлин Вейзингер, Рекс Линн, Мэтт Нолан, Марджин Холден, Шарлотта Корнвэлл
О фильме :
Планета Марс, 2176 год. На одну из дальних шахтерских станций на специальном поезде отправляется отряд полиции, чтобы забрать и доставить в город опасного преступника Уильямса, подозреваемого в убийстве и грабеже. Однако члены отряда еще даже не догадываются о той опасности, которую им приготовил Марс. Ведь отважным полицейским придется столкнуться не столько с людьми, сколько с таинственными и зловещими силами, живущими в самой планете.

Страна: США
Студия: Animationwerks, Screen Gems, Storm King Productions
Продолжительность: 01:38:07
Перевод: Профессиональный (многоголосый, закадровый)
Файл
Формат: MKV
Качество: BDRip-AVC (Blu-Ray 1080p)
Видео: MPEG-4 AVC, 768x320, ~ 985 Кбит/с
Аудио: AAC-LC, 2 ch, ~ 76 Кбит/с
Субтитры: Русские, английские
Общее
Уникальный идентификатор : 213963065638851104562715054340716238335 (0xA0F7C99A4CB4863BA6341A0AF30615FF)
Полное имя : D:MOVIESPrizraki.Marsa.2001.ExKinoRay.mkv
Формат : Matroska
Версия формата : Version 4 / Version 2
Размер файла : 746 Мбайт
Продолжительность : 1 ч. 38 м.
Общий поток : 1063 Кбит/сек
Дата кодирования : UTC 2018-01-26 13:44:14
Программа кодирования : mkvmerge v15.0.0 ('Duel with the Devil') 64-bit
Библиотека кодирования : libebml v1.3.5 + libmatroska v1.4.5
Видео
Идентификатор : 1
Формат : AVC
Формат/Информация : Advanced Video Codec
Профиль формата : High@L4.1
Параметр CABAC формата : Да
Параметр RefFrames формата : 10 кадров
Идентификатор кодека : V_MPEG4/ISO/AVC
Продолжительность : 1 ч. 38 м.
Битрейт : 985 Кбит/сек
Ширина : 768 пикселей
Высота : 320 пикселей
Соотношение сторон : 2,40:1
Режим частоты кадров : Постоянный
Частота кадров : 23,976 (24000/1001) кадра/сек
Цветовое пространство : YUV
Субдискретизация насыщенности : 4:2:0
Битовая глубина : 8 бит
Тип развёртки : Прогрессивная
Бит/(Пиксели*Кадры) : 0.167
Размер потока : 691 Мбайт (93%)
Библиотека кодирования : x264 core 152 r2851 ba24899
Настройки программы : cabac=1 / ref=10 / deblock=1:-3:-3 / analyse=0x3:0x133 / me=umh / subme=11 / psy=1 / psy_rd=1.00:0.07 / mixed_ref=1 / me_range=32 / chroma_me=1 / trellis=2 / 8x8dct=1 / cqm=0 / deadzone=21,11 / fast_pskip=0 / chroma_qp_offset=-3 / threads=6 / lookahead_threads=1 / sliced_threads=0 / nr=0 / decimate=0 / interlaced=0 / bluray_compat=0 / constrained_intra=0 / bframes=10 / b_pyramid=2 / b_adapt=2 / b_bias=0 / direct=3 / weightb=1 / open_gop=0 / weightp=2 / keyint=240 / keyint_min=23 / scenecut=40 / intra_refresh=0 / rc_lookahead=40 / rc=2pass / mbtree=0 / bitrate=985 / ratetol=1.0 / qcomp=0.60 / qpmin=0 / qpmax=69 / qpstep=4 / cplxblur=20.0 / qblur=0.5 / vbv_maxrate=50000 / vbv_bufsize=62500 / nal_hrd=none / filler=0 / ip_ratio=1.40 / pb_ratio=1.30 / aq=2:1.00
Default : Да
Forced : Нет
Аудио
Идентификатор : 2
Формат : AAC
Формат/Информация : Advanced Audio Codec
Профиль формата : LC
Идентификатор кодека : A_AAC
Продолжительность : 1 ч. 38 м.
Битрейт : 76,0 Кбит/сек
Каналы : 2 канала
Расположение каналов : Front: L R
Частота : 48,0 КГц
Частота кадров : 46,875 кадров/сек (1024 SPF)
Метод сжатия : С потерями
Задержка видео : 9 мс.
Размер потока : 53,3 Мбайт (7%)
Default : Да
Forced : Нет
Текст #1
Идентификатор : 3
Формат : UTF-8
Идентификатор кодека : S_TEXT/UTF8
Идентификатор кодека/Информация : UTF-8 Plain Text
Продолжительность : 1 ч. 32 м.
Битрейт : 66 бит/сек
ElementCount : 836
Размер потока : 44,7 Кбайт (0%)
Язык : Russian
Default : Нет
Forced : Нет
Текст #2
Идентификатор : 4
Формат : UTF-8
Идентификатор кодека : S_TEXT/UTF8
Идентификатор кодека/Информация : UTF-8 Plain Text
Продолжительность : 1 ч. 32 м.
Битрейт : 37 бит/сек
ElementCount : 827
Размер потока : 25,2 Кбайт (0%)
Язык : English
Default : Нет
Forced : Нет
Меню
00:00:00.000 : en:(01)00:00:00:000
00:04:47.370 : en:(02)00:04:47:370
00:12:47.641 : en:(03)00:12:47:641
00:17:25.502 : en:(04)00:17:25:502
00:23:34.830 : en:(05)00:23:34:830
00:29:54.375 : en:(06)00:29:54:375
00:35:22.370 : en:(07)00:35:22:370
00:40:51.824 : en:(08)00:40:51:824
00:46:03.135 : en:(09)00:46:03:135
00:53:02.804 : en:(10)00:53:02:804
00:59:08.086 : en:(11)00:59:08:086
01:07:56.238 : en:(12)01:07:56:238
01:11:26.448 : en:(13)01:11:26:448
01:15:01.205 : en:(14)01:15:01:205
01:19:59.336 : en:(15)01:19:59:336
01:27:37.543 : en:(16)01:27:37:543



Релиз от:

   Похожие торренты   Торрент   Размер 
В этой теме нет новых непрочитанных сообщений. Призраки Марса / Ghosts of Mars (2001) BDRip-AVC от Deadmauvlad | D

0 | 0

2.35 ГБ

В этой теме нет новых непрочитанных сообщений. Звёздный десант: Предатель Марса / Starship Troopers: Traitor of Mars (2017) BDRip от ExKinoRay | iTunes

351 | 3

1.42 ГБ

В этой теме нет новых непрочитанных сообщений. Звёздный десант: Предатель Марса / Starship Troopers: Traitor of Mars (2017) BDRip-AVC от OlLanDGroup | iTunes

223 | 21

3.58 ГБ

В этой теме нет новых непрочитанных сообщений. Звёздный десант: Предатель Марса / Starship Troopers: Traitor of Mars (2017) BDRip-AVC от New-Team | Лицензия

22 | 6

746.17 МБ

В этой теме нет новых непрочитанных сообщений. Звёздный десант: Предатель Марса / Starship Troopers: Traitor of Mars (2017) BDRip-AVC от HELLYWOOD | iTunes

294 | 26

2.14 ГБ

В этой теме нет новых непрочитанных сообщений. Звёздный десант: Предатель Марса / Starship Troopers: Traitor of Mars (2017) BDRip-AVC от New-Team | Лицензия

21 | 3

1.46 ГБ

В этой теме нет новых непрочитанных сообщений. Звёздный десант: Предатель Марса / Starship Troopers: Traitor of Mars (2017) BDRip-AVC от HELLYWOOD | iTunes

43 | 2

1.42 ГБ




Вы не можете начинать темы
Вы не можете отвечать на сообщения
Вы не можете редактировать свои сообщения
Вы не можете удалять свои сообщения
Вы не можете добавлять вложения

Перейти:  
Контактная информация: rstracker[пёсик]yandex.ru
 Вход
ppkBB3cker v.2 © 2008-2014 @ PPK
[ Time : 0.029s | 18 Queries | GZIP : Off ]

cron