img image001 image001 image001 image001 image001 image001 image001 image001 image001 image001 image001 image001 image001 image001 image001 image001

Planets Sun Sun Sun
Статистика раздачи
Автор: Nickolas3434 | Размер: 1.09 ГБ | Добавлен: 02 фев 2018
Раздают: 6    Качают: 0
Скачать торрент
Скачать торрент
Описание торрента

СообщениеДобавлено: 02 фев 2018 


Мы "В КОНТАКТЕ"


«Everything is not what it seems»

Страна: США
Производство: It's a Laugh Productions
Жанр: фэнтези, драма, комедия, приключения, семейный
Год выпуска: 2013
Продолжительность: 00:58:40
Перевод: Профессиональный (дублированный)
Оригинальная аудиодорожка: английский
Cубтитры: русский
Режиссер: Виктор Гонсалес / Victor Gonzalez
В ролях:
Селена Гомес, Джейк Т. Остин, Дженнифер Стоун, Грегг Салкин, Бо Мирчофф, Мария Кэнелс-Баррера, Дэвид ДеЛуис, Наталия Ногулич, Антонелла Лентини, Джек Доннер...
Описание:
Волшебная семейка Руссо — снова в центре внимания. В одно прекрасное лето Тереза, Джерри и Макс с друзьями Харпер и Мейсоном отправляются в солнечную Италию. Но Алекс остается дома, желая доказать близким, что она взрослая, и у нее своя жизнь. Вот только экспериментируя с заклинаниями, она случайно разделяет свою душу пополам. Наружу выходит злая Алекс, мечтающая захватить мир. А добрая кудесница вынуждена не только её усмирять, но и лететь через океан, чтобы спасти близких от чар злодейки.






Исходник: WEB-DL 1080p
Тип релиза: WEB-DLRip-AVC
Контейнер: MKV
Видео: 1024x576 (16:9), 23,976 fps, H264 ~ 2272 kbps avg, 0.161 bit/pixel
Аудио: 48 kHz, Dolby Digital AC3 2.0, 192 kbps Дублированный
Аудио: 48 kHz, Dolby Digital AC3 2.0, 192 kbps Английский
Формат субтитров: SoftSub (srt) Русский
Раздача от:
Общее
Полное имя : Bitva.volshebnikov.Aleks.protiv.Aleks.2013.WEB-DLRip-AVC_[New-team]_by_AVP_Studio.mkv
Формат : Matroska
Версия формата : Version 4 / Version 2
Размер файла : 1,09 Гбайт
Продолжительность : 58 м. 39 с.
Общий поток : 2658 Кбит/сек
Название фильма : Битва волшебников: Алекс против Алекс
Дата кодирования : UTC 2018-02-01 09:12:14
Программа кодирования : mkvmerge v17.0.0 ('Be Ur Friend') 64-bit
Библиотека кодирования : libebml v1.3.5 + libmatroska v1.4.8
Видео
Идентификатор : 1
Формат : AVC
Формат/Информация : Advanced Video Codec
Профиль формата : High@L4.1
Настройки формата : CABAC / 10 Ref Frames
Параметр CABAC формата : Да
Параметр RefFrames формата : 10 кадров
Идентификатор кодека : V_MPEG4/ISO/AVC
Продолжительность : 58 м. 39 с.
Битрейт : 2272 Кбит/сек
Ширина : 1024 пикселя
Высота : 576 пикселей
Соотношение сторон : 16:9
Режим частоты кадров : Постоянный
Частота кадров : 23,976 (24000/1001) кадра/сек
Цветовое пространство : YUV
Субдискретизация насыщенности : 4:2:0
Битовая глубина : 8 бит
Тип развёртки : Прогрессивная
Бит/(Пиксели*Кадры) : 0.161
Размер потока : 953 Мбайт (85%)
Заголовок : Битва волшебников: Алекс против Алекс
Библиотека кодирования : x264 core 130 r2273 b3065e6
Настройки программы : cabac=1 / ref=10 / deblock=1:-3:-2 / analyse=0x3:0x113 / me=umh / subme=10 / psy=1 / psy_rd=1.00:0.00 / mixed_ref=1 / me_range=32 / chroma_me=1 / trellis=2 / 8x8dct=1 / cqm=0 / deadzone=21,11 / fast_pskip=1 / chroma_qp_offset=-2 / threads=6 / lookahead_threads=1 / sliced_threads=0 / nr=0 / decimate=0 / interlaced=0 / bluray_compat=0 / constrained_intra=0 / bframes=8 / b_pyramid=2 / b_adapt=2 / b_bias=0 / direct=3 / weightb=1 / open_gop=0 / weightp=2 / keyint=240 / keyint_min=24 / scenecut=40 / intra_refresh=0 / rc_lookahead=40 / rc=2pass / mbtree=1 / bitrate=2272 / ratetol=1.0 / qcomp=0.60 / qpmin=0 / qpmax=69 / qpstep=4 / cplxblur=20.0 / qblur=0.5 / ip_ratio=1.40 / aq=1:1.00
Язык : English
Default : Да
Forced : Нет
Аудио #1
Идентификатор : 2
Формат : AC-3
Формат/Информация : Audio Coding 3
Идентификатор кодека : A_AC3
Продолжительность : 58 м. 39 с.
Вид битрейта : Постоянный
Битрейт : 192 Кбит/сек
Каналы : 2 канала
Расположение каналов : Front: L R
Частота : 48,0 КГц
Частота кадров : 31,250 кадров/сек (1536 SPF)
Битовая глубина : 16 бит
Метод сжатия : С потерями
Размер потока : 80,6 Мбайт (7%)
Заголовок : Dolby Digital
Язык : Russian
Default : Да
Forced : Нет
Аудио #2
Идентификатор : 3
Формат : AC-3
Формат/Информация : Audio Coding 3
Идентификатор кодека : A_AC3
Продолжительность : 58 м. 39 с.
Вид битрейта : Постоянный
Битрейт : 192 Кбит/сек
Каналы : 2 канала
Расположение каналов : Front: L R
Частота : 48,0 КГц
Частота кадров : 31,250 кадров/сек (1536 SPF)
Битовая глубина : 16 бит
Метод сжатия : С потерями
Размер потока : 80,6 Мбайт (7%)
Заголовок : Dolby Digital
Язык : English
Default : Нет
Forced : Нет
Текст
Идентификатор : 4
Формат : UTF-8
Идентификатор кодека : S_TEXT/UTF8
Идентификатор кодека/Информация : UTF-8 Plain Text
Продолжительность : 57 м. 43 с.
Битрейт : 137 бит/сек
ElementCount : 868
Размер потока : 58,1 Кбайт (0%)
Заголовок : SoftSub (srt)
Язык : Russian
Default : Нет
Forced : Нет





   Похожие торренты   Торрент   Размер 
В этой теме нет новых непрочитанных сообщений. Битва волшебников: Алекс против Алекс / The Wizards Return: Alex vs. Alex (2013) WEB-DLRip от New-Team | D

1 | 0

749.07 МБ

В этой теме нет новых непрочитанных сообщений. Алекс из Венеции / Alex of Venice (2014) BDRip-AVC | P

14 | 0

1.45 ГБ

В этой теме нет новых непрочитанных сообщений. Алекс из Венеции / Alex of Venice (2014) BDRip от MegaPeer | P

43 | 3

1.47 ГБ

В этой теме нет новых непрочитанных сообщений. Я, Алекс Кросс / Alex Cross (2012) BDRip от HQCLUB | US-Transfer

6 | 4

2.18 ГБ

В этой теме нет новых непрочитанных сообщений. Алекс Стрейнджлав / Alex Strangelove (2018) WEBRip | GreenРай Studio

10 | 3

1.35 ГБ

В этой теме нет новых непрочитанных сообщений. Я, Алекс Кросс / Alex Cross (2012) BDRemux 1080p | US-Transfer | D, A

0 | 1

28.69 ГБ

В этой теме нет новых непрочитанных сообщений. Я, Алекс Кросс / Alex Cross (2012) BDRip-AVC от 0ptimus | D, A | US Transfer

4 | 4

2.25 ГБ




Вы не можете начинать темы
Вы не можете отвечать на сообщения
Вы не можете редактировать свои сообщения
Вы не можете удалять свои сообщения
Вы не можете добавлять вложения

Перейти:  
 Вход
ppkBB3cker v.2 © 2008-2014 @ PPK
[ Time : 0.021s | 19 Queries | GZIP : Off ]

cron