img image001 image001 image001 image001 image001 image001 image001 image001 image001 image001 image001 image001 image001 image001 image001

Planets Sun Sun Sun
Статистика раздачи
Автор: PriZraK | Размер: 784.36 МБ | Добавлен: 07 фев 2018
Раздают: 330    Качают: 17
Скачать торрент
Скачать торрент
Описание торрента

СообщениеДобавлено: 07 фев 2018 

Год выпуска: 2018
Производство: США / Marvel Studios Inc.
Жанр: Фантастика, фэнтези, боевик, приключения
Режиссеры: Энтони Руссо, Джо Руссо
Продюсеры: Кевин Файги, Виктория Алонсо, Митчелл Белл
Актеры: Карен Гиллан, Пом Клементьефф, Крис Пратт, Тесса Томпсон, Джош Бролин, Скарлетт Йоханссон, Элизабет Олсен, Том Хиддлстон, Крис Хемсворт, Себастьян Стэн
Описание фильма:
Пока Мстители и их союзники продолжают защищать мир от различных опасностей, с которыми не смог бы справиться один супергерой, новая угроза возникает из космоса: Танос. Межгалактический тиран преследует цель собрать все шесть Камней Бесконечности — артефакты невероятной силы, с помощью которых можно менять реальность по своему желанию. Всё, с чем Мстители сталкивались ранее, вело к этому моменту — судьба Земли никогда ещё не была столь неопределённой.
Перевод: Дублированный

Дата мировой премьеры: 25 апреля 2018
Дата премьеры в России: 3 мая 2018, «WDSSPR»


Продолжительность: 00:02:31
Качество видео: DCPRip 2К
Видео: MPEG-4 AVC, 2048x858 (2.40:1), 34,3 Мбит/сек
Аудио 1: PCM 5.1, 6912 Кбит/сек
Аудио 2: DTS 5.1, 1536 Кбит/сек
Аудио 3: AC3 5.1, 640 Кбит/сек
Видео
Идентификатор : 1
Формат : AVC
Формат/Информация : Advanced Video Codec
Профиль формата : High@L4.1
Настройки формата : CABAC / 4 Ref Frames
Параметр CABAC формата : Да
Параметр RefFrames формата : 4 кадра
Идентификатор кодека : V_MPEG4/ISO/AVC
Продолжительность : 2 м. 31 с.
Битрейт : 34,3 Мбит/сек
Ширина : 2048 пикселей
Высота : 858 пикселей
Соотношение сторон : 2,40:1
Режим частоты кадров : Постоянный
Частота кадров : 23,976 (24000/1001) кадра/сек
Цветовое пространство : YUV
Субдискретизация насыщенности : 4:2:0
Битовая глубина : 8 бит
Тип развёртки : Прогрессивная
Бит/(Пиксели*Кадры) : 0.813
Размер потока : 620 Мбайт (79%)
Default : Да
Forced : Нет
Цветовой диапазон : Limited
Основные цвета : BT.709
Характеристики трансфера : BT.709
Коэффициенты матрицы : BT.601
Аудио #1
Идентификатор : 2
Формат : PCM
Идентификатор кодека : A_PCM/INT/LIT
Продолжительность : 2 м. 31 с.
Вид битрейта : Постоянный
Битрейт : 6912 Кбит/сек
Каналы : 6 каналов
Частота : 48,0 КГц
Частота кадров : 46,875 кадров/сек (1024 SPF)
Битовая глубина : 24 бит
Задержка видео : 19 мс.
Размер потока : 125 Мбайт (16%)
Заголовок : PCM 5.1
Язык : Russian
Default : Да
Forced : Нет
Аудио #2
Идентификатор : 3
Формат : DTS
Формат/Информация : Digital Theater Systems
Режим : 16
Параметр Endianness формата : Big
Идентификатор кодека : A_DTS
Продолжительность : 2 м. 31 с.
Вид битрейта : Постоянный
Битрейт : 1536 Кбит/сек
Каналы : 6 каналов
Расположение каналов : Front: L C R, Side: L R, LFE
Частота : 48,0 КГц
Частота кадров : 93,750 кадра/сек (512 SPF)
Битовая глубина : 24 бит
Метод сжатия : С потерями
Задержка видео : 9 мс.
Размер потока : 27,8 Мбайт (4%)
Заголовок : DTS 5.1
Язык : Russian
Default : Нет
Forced : Нет
Аудио #3
Идентификатор : 4
Формат : AC-3
Формат/Информация : Audio Coding 3
Параметр Endianness формата : Big
Идентификатор кодека : A_AC3
Продолжительность : 2 м. 31 с.
Вид битрейта : Постоянный
Битрейт : 640 Кбит/сек
Каналы : 6 каналов
Расположение каналов : Front: L C R, Side: L R, LFE
Частота : 48,0 КГц
Частота кадров : 31,250 кадров/сек (1536 SPF)
Битовая глубина : 16 бит
Метод сжатия : С потерями
Задержка видео : 30 мс.
Размер потока : 11,6 Мбайт (1%)
Заголовок : AC3 5.1
Язык : Russian
ServiceKind : Complete Main
Default : Нет
Forced : Нет

   Похожие торренты   Торрент   Размер 
В этой теме нет новых непрочитанных сообщений. Мстители: Война бесконечности / Avengers: Infinity War (2018) HD 1080p | Трейлер

433 | 11

55.77 МБ

В этой теме нет новых непрочитанных сообщений. Мстители: Война бесконечности / Avengers: Infinity War (2018) WEB-DL 1080p | D | IMAX Edition

125 | 11

8.93 ГБ

В этой теме нет новых непрочитанных сообщений. Мстители: Война бесконечности / Avengers: Infinity War (2018) HDRip от Scarabey | D | Open Matte

119 | 6

1.45 ГБ

В этой теме нет новых непрочитанных сообщений. Мстители: Война бесконечности / Avengers: Infinity War (2018) HybridRip 1080p | D, A | Open Matte

25 | 3

17.14 ГБ

В этой теме нет новых непрочитанных сообщений. Мстители: Война бесконечности / Avengers: Infinity War (2018) Hybrid 1080p | D, A | Open Matte

7 | 6

34.01 ГБ

В этой теме нет новых непрочитанных сообщений. Мстители: Война бесконечности / Avengers: Infinity War (2018) HybridRip-AVC | D | Open Matte

0 | 0

4.35 ГБ

В этой теме нет новых непрочитанных сообщений. Мстители: Война бесконечности / Avengers: Infinity War (2018) WEB-DL-HEVC 2160p | 4K | Dolby Vision TV | D, A

4 | 11

32.62 ГБ




Вы не можете начинать темы
Вы не можете отвечать на сообщения
Вы не можете редактировать свои сообщения
Вы не можете удалять свои сообщения
Вы не можете добавлять вложения

Перейти:  
Контактная информация: rstracker[пёсик]yandex.ru
 Вход
ppkBB3cker v.2 © 2008-2014 @ PPK
[ Time : 0.018s | 18 Queries | GZIP : Off ]

cron