img image001 image001 image001 image001 image001 image001 image001 image001 image001 image001 image001 image001 image001 image001 image001 image001

Planets Sun Sun Sun
Статистика раздачи
Автор: PriZraK | Размер: 26.97 ГБ | Добавлен: 08 фев 2018
Раздают: 0    Качают: 1
Скачать торрент
Скачать торрент
Описание торрента

СообщениеДобавлено: 08 фев 2018 

Информация о фильме
Название: Сладости жизни
Оригинальное название: Life Is Sweet
Год выхода: 1990
Жанр: драма, комедия
Режиссер: Майк Ли
В ролях: Элисон Стэдмен, Джим Бродбент, Клер Скиннер, Джейн Хоррокс, Стивен Ри, Тимоти Сполл, Дэвид Тьюлис, Мойя Брэди, Дэвид Нилсон, Харриет Торпе
Описание: Пять дней из жизни лондонской семьи: Венди, Энди и их великовозрастные дочки-близнецы Натали и Никола. Мама Венди работает клерком в магазине, ведет уроки аэробики в школе, соглашается поработать вместо подружки-официантки и успевает шутить, как заправская водевильная актриса. Вдобавок она души не чает в папе Энди, который с головой погружен в неосуществимые проекты, мешающие ему сосредоточиться на карьере повара. В частности, они на пару с пьяным другом приобретают полуистлевший фургон, который намерены приспособить под торговую точку. Натали и Никола – это одно сплошное горе. Натали – коротко стриженая оторва с угловатыми манерами, Никола – малокровная замарашка в очках, с немытой головой и нервными пальцами... Повседневные отношения, маленькие трагедии, рутинные скандалы, большая любовь и другие кошмары.

Страна: Великобритания
Продолжительность: 01:43:38
Перевод: Профессиональный (двухголосый закадровый)
Субтитры: русские, английские
Оригинальная аудиодорожка: английский
Файл
Качество: BDRemux 1080р
Видео: H.264/AVC, 1920x1080 at 23.976 fps, ~34984 kbps
Аудио 1: Russian: 48 kHz, AC3, 2/0 (L,R) ch, 192 kbps |Двухголосый закадровый|
Аудио 2: English: 48 kHz, DTS-HD MA, 2/0 (L,R) ch, 1555 kbps (DTS Core: 2.0 / 48 kHz / 1509 kbps / 24-bit)
Аудио 3: English: 48 kHz, AC3, 2/0 (L,R) ch, 192 kbps |Commentary by Mike Leigh|

Complete name : Life is Sweet.1990.CriterionCollection.BDRemux. rutrackеr.mkv
Format : Matroska
Format version : Version 2
File size : 27.0 GiB
Duration : 1h 43mn
Overall bit rate mode : Variable
Overall bit rate : 37.3 Mbps
Movie name : Life is Sweet.1990.CriterionCollection.BDRemux. rutrаckеr
Encoded date : UTC 2013-08-24 13:03:24
Writing application : mkvmerge v5.0.1 ('Es ist Sommer') built on Nov 6 2011 16:23:40
Writing library : libebml v1.2.2 + libmatroska v1.3.0
Video
ID : 1
Format : AVC
Format/Info : Advanced Video Codec
Format profile : High@L4.1
Format settings, CABAC : Yes
Format settings, ReFrames : 4 frames
Codec ID : V_MPEG4/ISO/AVC
Duration : 1h 43mn
Bit rate mode : Variable
Bit rate : 34.6 Mbps
Maximum bit rate : 37.0 Mbps
Width : 1 920 pixels
Height : 1 080 pixels
Display aspect ratio : 16:9
Frame rate : 23.976 fps
Color space : YUV
Chroma subsampling : 4:2:0
Bit depth : 8 bits
Scan type : Progressive
Bits/(Pixel*Frame) : 0.695
Stream size : 25.0 GiB (93%)
Title : Life is Sweet.1990.CriterionCollection.BDRemux. rutrаcker
Language : English
Default : Yes
Forced : No
Audio #1
ID : 2
Format : AC-3
Format/Info : Audio Coding 3
Mode extension : CM (complete main)
Codec ID : A_AC3
Duration : 1h 43mn
Bit rate mode : Constant
Bit rate : 192 Kbps
Channel(s) : 2 channels
Channel positions : Front: L R
Sampling rate : 48.0 KHz
Bit depth : 16 bits
Compression mode : Lossy
Stream size : 142 MiB (1%)
Language : Russian
Default : Yes
Forced : No
Audio #2
ID : 3
Format : DTS
Format/Info : Digital Theater Systems
Format profile : MA / Core
Codec ID : A_DTS
Duration : 1h 43mn
Bit rate mode : Variable
Bit rate : 1 555 Kbps / 1 510 Kbps
Channel(s) : 2 channels
Channel positions : Front: L R
Sampling rate : 48.0 KHz
Bit depth : 24 bits
Compression mode : Lossless / Lossy
Language : English
Default : No
Forced : No
Audio #3
ID : 4
Format : AC-3
Format/Info : Audio Coding 3
Mode extension : CM (complete main)
Codec ID : A_AC3
Duration : 1h 43mn
Bit rate mode : Constant
Bit rate : 192 Kbps
Channel(s) : 2 channels
Channel positions : Front: L R
Sampling rate : 48.0 KHz
Bit depth : 16 bits
Compression mode : Lossy
Stream size : 142 MiB (1%)
Title : Commentary
Language : English
Default : No
Forced : No
Text #1
ID : 5
Format : UTF-8
Codec ID : S_TEXT/UTF8
Codec ID/Info : UTF-8 Plain Text
Language : Russian
Default : No
Forced : No
Text #2
ID : 6
Format : UTF-8
Codec ID : S_TEXT/UTF8
Codec ID/Info : UTF-8 Plain Text
Language : English
Default : No
Forced : No



   Похожие торренты   Торрент   Размер 
В этой теме нет новых непрочитанных сообщений. Мгновения жизни / The Life Before Her Eyes (2007) BDRemux 1080p | Р

4 | 0

14.59 ГБ

В этой теме нет новых непрочитанных сообщений. Срок жизни / Term Life (2016) BDRemux 1080p от ExKinoRay | L

7 | 3

25.36 ГБ

В этой теме нет новых непрочитанных сообщений. Попкорн / Popcorn (1990) BDRemux 1080р | A

0 | 0

26.21 ГБ

В этой теме нет новых непрочитанных сообщений. Точка кипения / 3-4 x jûgatsu (1990) BDRemux 1080р | P2

2 | 1

24.65 ГБ

В этой теме нет новых непрочитанных сообщений. Ночной ангел / Night Angel (1990) BDRemux 1080р | P2

1 | 2

15.5 ГБ

В этой теме нет новых непрочитанных сообщений. Нанятые для убийства / Hired to Kill (1990) BDRemux 1080р | D, A

0 | 0

23.52 ГБ

В этой теме нет новых непрочитанных сообщений. Ночная смена / Graveyard Shift (1990) BDRemux 1080р | P, A

0 | 0

16.93 ГБ




Вы не можете начинать темы
Вы не можете отвечать на сообщения
Вы не можете редактировать свои сообщения
Вы не можете удалять свои сообщения
Вы не можете добавлять вложения

Перейти:  
 Вход
ppkBB3cker v.2 © 2008-2014 @ PPK
[ Time : 0.031s | 17 Queries | GZIP : Off ]

cron