img image001 image001 image001 image001 image001 image001 image001 image001 image001 image001 image001 image001 image001 image001 image001 image001

Planets Sun Sun Sun
Статистика раздачи
Автор: PriZraK | Размер: 2.18 ГБ | Добавлен: 12 фев 2018
Раздают: 17    Качают: 0
Скачать торрент
Скачать торрент
Описание торрента

СообщениеДобавлено: 12 фев 2018 

Скрюченный домишко / Crooked House


Перевод: Профессиональный (многоголосый закадровый) iTunes
Cубтитры: Pусские, английские
Формат: BDRip, MKV, H.264, AC3
Страна: Великобритания
Режиссер: Жиль Паке-Бреннер
Жанр: драма, криминал, детектив
Продолжительность: 01:55:11
Год выпуска: 2017

В ролях: Кристина Хендрикс, Джиллиан Андерсон, Гленн Клоуз, Теренс Стэмп, Макс Айронс, Джулиан Сэндс, Хонор Книфси, Аманда Аббингтон, Стефани Мартини, Роджер Эштон-Гриффитс

Описание: София, внучка олигарха Аристида Леонидиса, приглашает частного детектива Чарльза Хейуорда расследовать убийство ее дедушки. Она уверена: кто-то из домочадцев отравил его. Взявшись за расследование, Чарльз выясняет, что мотив мог быть у всех. Даже у Софии…



Видео: 1156x484p (2,40:1), 23,976 fps, AVC MPEG-4 (x264), , ~ 1 877 Кбит/сек, 0.140 bit/pixel

Аудио #1: Русский: 48 kHz/16-bits AC3, 6 ch, ~ 384 kbps avg [Профессиональный (многоголосый закадровый), iTunes]
Аудио #2: Английский: 48 kHz/16-bits AC3, 6 ch, ~ 448 kbps avg [Оригинал]





Общее
Уникальный идентификатор : 234066742628202622741654098355495976281 (0xB0179D678C9085379D139AD736B53D59)
Полное имя : E:\Закачка-2\Skruchennyi.Domishko.2017.DUAL.BDRip.x264.-HELLYWOOD.mkv
Формат : Matroska
Версия формата : Version 4 / Version 2
Размер файла : 2,18 Гбайт
Продолжительность : 1 ч. 55 м.
Общий поток : 2711 Кбит/сек
Название фильма : Crooked House (2017)
Дата кодирования : UTC 2018-02-11 12:44:39
Программа кодирования : mkvmerge v5.9.0 ('On The Loose') built on Dec 15 2012 16:39:58
Библиотека кодирования : libebml v1.3.0 + libmatroska v1.4.0

Видео
Идентификатор : 1
Формат : AVC
Формат/Информация : Advanced Video Codec
Профиль формата :
Параметр CABAC формата : Да
Параметр ReFrames формата : 10 кадров
Идентификатор кодека : V_MPEG4/ISO/AVC
Продолжительность : 1 ч. 55 м.
Битрейт : 1877 Кбит/сек
Ширина : 1156 пикселей
Высота : 484 пикселя
Соотношение сторон : 2,40:1
Режим частоты кадров : Постоянный
Частота кадров : 23,976 (24000/1001) кадра/сек
Цветовое пространство : YUV
Субдискретизация насыщенности : 4:2:0
Битовая глубина : 8 бит
Тип развёртки : Прогрессивная
Бит/(Пиксели*Кадры) : 0.140
Размер потока : 1,47 Гбайт (67%)
Заголовок : potroks
Библиотека кодирования : x264 core 155 r2901M 7d0ff22
Настройки программы : cabac=1 / ref=10 / deblock=1:-1:-1 / analyse=0x3:0x131 / me=umh / subme=11 / psy=1 / psy_rd=1.00:0.05 / mixed_ref=1 / me_range=48 / chroma_me=1 / trellis=2 / 8x8dct=1 / cqm=0 / deadzone=21,11 / fast_pskip=0 / chroma_qp_offset=-3 / threads=9 / lookahead_threads=2 / sliced_threads=0 / nr=0 / decimate=0 / interlaced=0 / bluray_compat=0 / constrained_intra=0 / bframes=12 / b_pyramid=2 / b_adapt=2 / b_bias=0 / direct=3 / weightb=1 / open_gop=0 / weightp=2 / keyint=240 / keyint_min=23 / scenecut=40 / intra_refresh=0 / rc_lookahead=100 / rc=2pass / mbtree=0 / bitrate=1877 / ratetol=1.0 / qcomp=0.70 / qpmin=0 / qpmax=69 / qpstep=4 / cplxblur=20.0 / qblur=0.5 / vbv_maxrate=50000 / vbv_bufsize=50000 / nal_hrd=none / filler=0 / ip_ratio=1.40 / pb_ratio=1.30 / aq=2:0.70
Язык : English
Default : Да
Forced : Нет

Аудио #1
Идентификатор : 2
Формат : AC-3
Формат/Информация : Audio Coding 3
Расширение режима : CM (complete main)
Параметр Endianness формата : Big
Идентификатор кодека : A_AC3
Продолжительность : 1 ч. 55 м.
Вид битрейта : Постоянный
Битрейт : 384 Кбит/сек
Каналы : 6 каналов
Расположение каналов : Front: L C R, Side: L R, LFE
Частота : 48,0 КГц
Частота кадров : 31,250 кадров/сек (1536 spf)
Метод сжатия : С потерями
Размер потока : 316 Мбайт (14%)
Заголовок : Dub | DD 5.1 @ 384 kbps - iTunes
Язык : Russian
Default : Да
Forced : Нет

Аудио #2
Идентификатор : 3
Формат : AC-3
Формат/Информация : Audio Coding 3
Расширение режима : CM (complete main)
Параметр Endianness формата : Big
Идентификатор кодека : A_AC3
Продолжительность : 1 ч. 55 м.
Вид битрейта : Постоянный
Битрейт : 448 Кбит/сек
Каналы : 6 каналов
Расположение каналов : Front: L C R, Side: L R, LFE
Частота : 48,0 КГц
Частота кадров : 31,250 кадров/сек (1536 spf)
Метод сжатия : С потерями
Размер потока : 369 Мбайт (17%)
Заголовок : Original | DD 5.1 @ 448 kbps
Язык : English
Default : Нет
Forced : Нет

Текст #1
Идентификатор : 4
Формат : UTF-8
Идентификатор кодека : S_TEXT/UTF8
Идентификатор кодека/Информация : UTF-8 Plain Text
Заголовок : Nautay
Язык : Russian
Default : Нет
Forced : Нет

Текст #2
Идентификатор : 5
Формат : UTF-8
Идентификатор кодека : S_TEXT/UTF8
Идентификатор кодека/Информация : UTF-8 Plain Text
Заголовок : Full
Язык : English
Default : Нет
Forced : Нет

Текст #3
Идентификатор : 6
Формат : UTF-8
Идентификатор кодека : S_TEXT/UTF8
Идентификатор кодека/Информация : UTF-8 Plain Text
Заголовок : SDH
Язык : English
Default : Нет
Forced : Нет

Меню
00:00:00.000 : :Chapter 1
00:09:27.484 : :Chapter 2
00:18:25.229 : :Chapter 3
00:25:24.148 : :Chapter 4
00:31:51.034 : :Chapter 5
00:38:01.154 : :Chapter 6
00:43:37.281 : :Chapter 7
00:51:18.867 : :Chapter 8
00:54:23.510 : :Chapter 9
01:00:16.029 : :Chapter 10
01:11:44.342 : :Chapter 11
01:17:28.435 : :Chapter 12
01:24:45.414 : :Chapter 13
01:28:59.209 : :Chapter 14
01:34:54.063 : :Chapter 15
01:42:04.952 : :Chapter 16






   Похожие торренты   Торрент   Размер 
В этой теме нет новых непрочитанных сообщений. Скрюченный домишко / Crooked House (Жиль Паке-Бреннер) [2017, драма, криминал, детектив, HDRip] MVO

10 | 0

2.18 ГБ

В этой теме нет новых непрочитанных сообщений. Скрюченный домишко / Crooked House (2017) BDRip-AVC от HELLYWOOD | iTunes

70 | 5

1.41 ГБ

В этой теме нет новых непрочитанных сообщений. Скрюченный домишко / Crooked House (2017) BDRip 720p | iTunes

0 | 0

5.78 ГБ

В этой теме нет новых непрочитанных сообщений. Скрюченный домишко / Crooked House (2017) BDRip 1080p | iTunes

0 | 0

9.06 ГБ

В этой теме нет новых непрочитанных сообщений. Скрюченный домишко / Crooked House (2017) WEB-DL 1080p | iTunes

413 | 5

4.31 ГБ

В этой теме нет новых непрочитанных сообщений. Скрюченный домишко / Crooked House (2017) WEB-DLRip-AVC | iTunes

33 | 2

1.46 ГБ

В этой теме нет новых непрочитанных сообщений. Скрюченный домишко / Crooked House (2017) WEB-DLRip от MegaPeer | iTunes

1681 | 15

1.46 ГБ




Вы не можете начинать темы
Вы не можете отвечать на сообщения
Вы не можете редактировать свои сообщения
Вы не можете удалять свои сообщения
Вы не можете добавлять вложения

Перейти:  
 Вход
ppkBB3cker v.2 © 2008-2014 @ PPK
[ Time : 0.399s | 19 Queries | GZIP : Off ]

cron