img image001 image001 image001 image001 image001 image001 image001 image001 image001 image001 image001 image001 image001 image001 image001 image001

Planets Sun Sun Sun
Статистика раздачи
Автор: Снежана | Размер: 1.46 ГБ | Добавлен: 13 фев 2018
Раздают: 12    Качают: 0
Скачать торрент
Скачать торрент
Описание торрента

СообщениеДобавлено: 13 фев 2018 

Таинственная река / Mystic River

Перевод: Профессиональный (полное дублирование), субтитры : русские
Формат: BDRip-AVC, MKV, H.264, AC3
Страна: США, Австралия
Режиссер: Клинт Иствуд
Жанр: триллер, драма, криминал, детектив
Продолжительность: 02:17:56
Год выпуска: 2003

В ролях: Шон Пенн, Тим Роббинс, Кевин Бейкон, Лоренс Фишбёрн, Марша Гэй Харден, Лора Линни, Кевин Чэпмен, Том Гайри, Эмми Россам, Спенсер Трит Кларк

Описание: Джимми Маркум, Дейвид Бойл и Шон Девин — неразлучные приятели с детства. Они вместе играют в хоккей, взрослея на знакомых неспокойных улицах Бостона. Уже будучи взрослыми мужчинами, судьба сталкивает их вместе перед лицом трагедии: зверского убийства дочери Джимми Маркума — Кэтти.



Видео: 912x380 (2.40:1), 23.976 fps, AVC(x264), ~1133 kbps, 0.119 bit/pixel
Аудио: 48 kHz, AC3 Dolby Digital, 3/2 (L,C,R,l,r) + LFE ch, ~384 kbps

Доп. информация: По одноименному роману Денниса Лихэйна. Автор рипа: potroks
Оскар (2004)

Премия «Оскар» в номинации «Лучшая мужская роль» — Шон Пенн
Премия «Оскар» в номинации «Лучшая мужская роль второго плана» — Тим Роббинс

Номинация на премию «Оскар» в категории «Лучший фильм»
Номинация на премию «Оскар» в категории «Лучшая женская роль второго плана» — Марша Гэй Харден
Номинация на премию «Оскар» в категории «Лучший режиссёр» — Клинт Иствуд
Номинация на премию «Оскар» в категории «Лучший адаптированный сценарий»

Золотой глобус (2004)

Премия в номинации «Лучшая мужская роль» (Драма) — Шон Пенн
Премия в номинации «Лучшая мужская роль второго плана» — Тим Роббинс

Номинация на премию «Золотой глобус» в категории «Лучший фильм» (Драма)
Номинация на премию «Золотой глобус» в категории «Лучший режиссёр» — Клинт Иствуд
Номинация на премию «Золотой глобус» в категории «Лучший сценарий»

Британская академия, 2004 год
Номинации (4):

Лучшая мужская роль (Шон Пенн)
Лучшая мужская роль второго плана (Тим Роббинс)
Лучшая женская роль второго плана (Лора Линни)
Лучший адаптированный сценарий

Каннский кинофестиваль (2003)

Премия «Золотой наставник» — Клинт Иствуд

Номинация «Золотая пальмовая ветвь»

Формат : Matroska
Размер файла : 1,46 Гбайт
Продолжительность : 2 ч. 17 м.
Общий поток : 1517 Кбит/сек

Видео
Идентификатор : 1
Формат : AVC
Формат/Информация : Advanced Video Codec
Профиль формата :
Параметр CABAC формата : Да
Параметр ReFrames формата : 10 кадров
Идентификатор кодека : V_MPEG4/ISO/AVC
Продолжительность : 2 ч. 17 м.
Номинальный битрейт : 1133 Кбит/сек
Ширина : 912 пикс.
Высота : 380 пикс.
Соотношение сторон : 2,40:1
Частота кадров : 23,976 кадр/сек
Цветовое пространство : YUV
Подвыборка цветности : 4:2:0
Битовая глубина : 8 бит
Тип развёртки : Прогрессивная
Бит/(Пиксели*Кадры) : 0.119
Размер потока : 1,08 Гбайт (74%)
Библиотека кодирования : x264 core 85 r1442kMod 781d300
Настройки программы : cabac=1 / ref=10 / deblock=1:-1:-1 / analyse=0x3:0x113 / me=umh / subme=10 / psy=1 / psy_rd=1.00:0.20 / mixed_ref=1 / me_range=32 / chroma_me=1 / trellis=2 / 8x8dct=1 / cqm=0 / deadzone=21,11 / fast_pskip=0 / chroma_qp_offset=-3 / threads=6 / sliced_threads=0 / nr=0 / decimate=0 / mbaff=0 / interlaced=0 / constrained_intra=0 / bframes=5 / b_pyramid=2 / b_adapt=2 / b_bias=0 / direct=3 / wpredb=1 / wpredp=2 / keyint=250 / keyint_min=25 / scenecut=40 / intra_refresh=0 / rc_lookahead=60 / rc=2pass / mbtree=1 / bitrate=1133 / ratetol=1.0 / qcomp=0.60 / qpmin=10 / qpmax=51 / qpstep=4 / cplxblur=20.0 / qblur=0.5 / ip_ratio=1.40 / aq=1:1.00 / pulldown=0
Язык : Russian

Аудио
Идентификатор : 2
Формат : AC-3
Формат/Информация : Audio Coding 3
Расширение режима : CM (complete main)
Параметр Endianness формата : Big
Идентификатор кодека : A_AC3
Продолжительность : 2 ч. 17 м.
Вид битрейта : Постоянный
Битрейт : 384 Кбит/сек
Каналы : 6 каналов
Расположение каналов : Front: L C R, Side: L R, LFE
Частота : 48,0 КГц
Частота кадров : 31,250 кадров/сек (1536 spf)
Метод сжатия : С потерями
Размер потока : 379 Мбайт (26%)
Язык : Russian
Default : Да
Forced : Нет

Текст
Идентификатор : 3
Формат : UTF-8
Идентификатор кодека : S_TEXT/UTF8
Идентификатор кодека/Информация : UTF-8 Plain Text
Язык : Russian












   Похожие торренты   Торрент   Размер 
В этой теме нет новых непрочитанных сообщений. Таинственная река / Mystic River (Клинт Иствуд) [2003, триллер, драма, криминал, детектив, BDRip] 2xAVO

2 | 0

2.19 ГБ

В этой теме нет новых непрочитанных сообщений. Настоящее преступление / True Crime (Клинт Иствуд) [1999, триллер, драма, криминал, детектив, BDRip] MVO

0 | 2

1.46 ГБ

В этой теме нет новых непрочитанных сообщений. Таинственная река / Mystic river (2003) BDRip | P, A

62 | 17

3.86 ГБ

В этой теме нет новых непрочитанных сообщений. Таинственная река / Mystic River (2003) BDRip-AVC

96 | 15

2.12 ГБ

В этой теме нет новых непрочитанных сообщений. Таинственная река / Mystic River (2003) BDRip от MediaClub | КПК

107 | 10

624.92 МБ

В этой теме нет новых непрочитанных сообщений. Таинственная река / Mystic River (2003) BDRip 720p от NNNB | D, P, A

121 | 10

5.85 ГБ

В этой теме нет новых непрочитанных сообщений. Таинственная река / Mystic River (2003) BDRip 1080p от NNNB | D, P, A

77 | 10

9.43 ГБ




Вы не можете начинать темы
Вы не можете отвечать на сообщения
Вы не можете редактировать свои сообщения
Вы не можете удалять свои сообщения
Вы не можете добавлять вложения

Перейти:  
 Вход
ppkBB3cker v.2 © 2008-2014 @ PPK
[ Time : 0.032s | 18 Queries | GZIP : Off ]

cron