img image001 image001 image001 image001 image001 image001 image001 image001 image001 image001 image001 image001 image001 image001 image001 image001

Planets Sun Sun Sun
Статистика раздачи
Автор: Снежана | Размер: 1.45 ГБ | Добавлен: 21 фев 2018
Раздают: 0    Качают: 2
Скачать торрент
Скачать торрент
Описание торрента

СообщениеДобавлено: 21 фев 2018 

Чумовая пятница / Freaky Friday


Перевод: Профессиональный (многоголосый закадровый), субтитры: отсутствуют
Формат: DVDRip-AVC, MKV, H.264, AC3
Страна: США
Режиссер: Гэри Нельсон
Жанр: фэнтези, комедия, семейный
Продолжительность: 01:34:13
Год выпуска: 1976
В ролях: Барбара Харрис, Джоди Фостер, Джон Эстин, Пэтси Келли, Дик Ван Паттен, Вики Шрек, Соррел Бук, Алан Оппенхаймер, Рут Бацци, Кэй Баллард
Описание:
Эллен Эндрюс и ее дочь-подросток Аннабель никак не могут найти общий язык друг с другом, из-за чего постоянно ссорятся. Однажды в четверг, они загадывают одинаковое желание — оказаться на месте друг друга, которое исполнятся на следующий день, в пятницу.
Экранизация по произведению Мэри Роджерс.




Видео: 720x400 (1.80:1), 25 fps, MPEG4 AVC (x264) , 1824 kbps avg, 0.253 bit/pixel
Аудио #1: Русский: 48.0 kHz, AC3 Dolby Digital, 2/0 (L,R) ch, ~192 kbps [профессиональный (многоголосый, закадровый)]
Аудио #2: Английский: 48.0 kHz, AC3 Dolby Digital, 2/0 (L,R) ch, ~192 kbps [Оригинал]

Complete name : D:\Чумовая_пятница.1976.DVDRip-AVC.1,4gb.mkv
Format : Matroska
File size : 1.45 GiB
Duration : 1h 34mn
Overall bit rate : 2 210 Kbps
Encoded date : UTC 2018-02-17 13:15:42
Writing application : mkvmerge v7.9.0 ('Birds') 64bit
Writing library : libebml v1.3.1 + libmatroska v1.4.2

Video
ID : 1
Format : AVC
Format/Info : Advanced Video Codec
Format profile :
Format settings, CABAC : Yes
Format settings, ReFrames : 12 frames
Format settings, GOP : M=7, N=25
Codec ID : V_MPEG4/ISO/AVC
Duration : 1h 34mn
Bit rate : 1 824 Kbps
Width : 720 pixels
Height : 400 pixels
Display aspect ratio : 16:9
Frame rate : 25.000 fps
Color space : YUV
Chroma subsampling : 4:2:0
Bit depth : 8 bits
Scan type : Progressive
Bits/(Pixel*Frame) : 0.253
Stream size : 1.17 GiB (81%)
Title : Freaky Friday
Writing library : x264 core 146 r2538 121396c
Encoding settings : cabac=1 / ref=12 / deblock=1:-1:-1 / analyse=0x3:0x113 / me=umh / subme=10 / psy=1 / psy_rd=1.00:0.10 / mixed_ref=1 / me_range=32 / chroma_me=1 / trellis=2 / 8x8dct=1 / cqm=0 / deadzone=21,11 / fast_pskip=0 / chroma_qp_offset=-3 / threads=6 / lookahead_threads=1 / sliced_threads=0 / nr=0 / decimate=0 / interlaced=0 / bluray_compat=0 / constrained_intra=0 / bframes=7 / b_pyramid=2 / b_adapt=2 / b_bias=0 / direct=3 / weightb=1 / open_gop=0 / weightp=2 / keyint=250 / keyint_min=25 / scenecut=40 / intra_refresh=0 / rc_lookahead=60 / rc=2pass / mbtree=1 / bitrate=1824 / ratetol=1.0 / qcomp=0.60 / qpmin=0 / qpmax=69 / qpstep=4 / cplxblur=20.0 / qblur=0.5 / vbv_maxrate=14000 / vbv_bufsize=14000 / nal_hrd=none / filler=0 / ip_ratio=1.40 / aq=1:1.00

Audio #1
ID : 2
Format : AC-3
Format/Info : Audio Coding 3
Mode extension : CM (complete main)
Codec ID : A_AC3
Duration : 1h 34mn
Bit rate mode : Constant
Bit rate : 192 Kbps
Channel(s) : 2 channels
Channel positions : Front: L R
Sampling rate : 48.0 KHz
Bit depth : 16 bits
Stream size : 129 MiB (9%)
Title : Многоголосый закадровый
Language : Russian

Audio #2
ID : 3
Format : AC-3
Format/Info : Audio Coding 3
Mode extension : CM (complete main)
Codec ID : A_AC3
Duration : 1h 34mn
Bit rate mode : Constant
Bit rate : 192 Kbps
Channel(s) : 2 channels
Channel positions : Front: L R
Sampling rate : 48.0 KHz
Bit depth : 16 bits
Stream size : 129 MiB (9%)
Title : Оригинал
Language : English















   Похожие торренты   Торрент   Размер 
В этой теме нет новых непрочитанных сообщений. Чумовая пятница / Freaky Friday (2003) DVDRip

359 | 9

1.37 ГБ

В этой теме нет новых непрочитанных сообщений. Чумовая пятница / Freaky Friday (2003) DVDRip | D | Лицензия

51 | 3

745.41 МБ

В этой теме нет новых непрочитанных сообщений. Чумовая пятница / Freaky Friday (2003) DVDRip-AVC от Torrent-Xzona

49 | 5

1.33 ГБ

В этой теме нет новых непрочитанных сообщений. Чумовая пятница / Freaky Friday (1995) TVRip

2 | 5

1.32 ГБ

В этой теме нет новых непрочитанных сообщений. Чумовая пятница / Freaky Friday (2003) WEB-DLRip-AVC | D, P2 , L1

101 | 8

2.19 ГБ

В этой теме нет новых непрочитанных сообщений. Чумовая пятница / Freaky Friday (2003) WEB-DL 720p

179 | 21

3.66 ГБ

В этой теме нет новых непрочитанных сообщений. OST - Чумовая пятница / Freaky Friday [Original Soundtrack] (2003) MP3

0 | 150

112.78 МБ




Вы не можете начинать темы
Вы не можете отвечать на сообщения
Вы не можете редактировать свои сообщения
Вы не можете удалять свои сообщения
Вы не можете добавлять вложения

Перейти:  
 Вход
ppkBB3cker v.2 © 2008-2014 @ PPK
[ Time : 0.038s | 16 Queries | GZIP : Off ]

cron