img image001 image001 image001 image001 image001 image001 image001 image001 image001 image001 image001 image001 image001 image001 image001 image001

Planets Sun Sun Sun
Статистика раздачи
Автор: Снежана | Размер: 1.16 ГБ | Добавлен: 23 фев 2018
Раздают: 16    Качают: 0
Скачать торрент
Скачать торрент
Описание торрента

СообщениеДобавлено: 23 фев 2018 

Двойная мята / Double Mints / Daburu mintsu / ダブルミンツ


Перевод: Любительский (многоголосый) [озвучка - Храм Дорам; перевод - FSG Libertas]; субтитры: отсутствуют
Формат: WEBDLRip-AVC, MKV, H.264, AAC
Страна: Япония
Режиссер: Эйджи Учида / Eiji Uchida
Жанр: криминал, драма, мелодрама
Продолжительность: 01:41:42
Год выпуска: 2017
В ролях: Ясуши Фучиками, Шунпеи Кавагоиши, Шигемицу Оги, Кента Суга, Кадзуя Такахаши, Шунсуке Танака, Ами Томитэ
Описание: Много лет назад в одном классе учились 2 школьника, причём обоих звали Мицуо Итикава. Тогда один Мицуо поклялся, что всегда придёт на помощь другому. Прошли годы. Один Мицуо стал бандитом, другой - офисным клерком. И вот однажды раздаётся телефонный звонок: "Я убил женщину. Ты поможешь мне избавиться от трупа ?" Теперь наступил тот момент, когда придётся ответить за свои слова. И за свои чувства. И придётся иметь дело с якудзой .



Видео: 1280x536 (2,40:1); 23,976 fps; AVC MPEG-4 (H.264) ; ~1474 kbps; 0.090 bit/pixel
Аудио: 44,1 KHz; AAC-LC; 2 ch; 192 Kbps


Общее:
Формат : Matroska
Версия формата : Version 4 / Version 2
Размер файла : 1,16 Гбайт
Продолжительность : 1 ч. 41 м.
Общий поток : 1638 Кбит/сек
Программа кодирования : mkvmerge v11.0.0 ('Alive') 32bit
Библиотека кодирования : libebml v1.3.4 + libmatroska v1.4.5

Видео:
Идентификатор : 1
Формат : AVC
Формат/Информация : Advanced Video Codec
Профиль формата :
Настройки формата : CABAC / 4 Ref Frames
Параметр CABAC формата : Да
Параметр RefFrames формата : 4 кадра
Идентификатор кодека : V_MPEG4/ISO/AVC
Продолжительность : 1 ч. 41 м.
Битрейт : 1474 Кбит/сек
Ширина : 1280 пикселей
Высота : 536 пикселей
Соотношение сторон : 2,40:1
Режим частоты кадров : Постоянный
Частота кадров : 23,976 (24000/1001) кадра/сек
Цветовое пространство : YUV
Субдискретизация насыщенности : 4:2:0
Битовая глубина : 8 бит
Тип развёртки : Прогрессивная
Бит/(Пиксели*Кадры) : 0.090
Размер потока : 1,03 Гбайт (88%)
Библиотека кодирования : x264 core 148
Настройки программы : cabac=1 / ref=2 / deblock=1:0:0 / analyse=0x3:0x113 / me=hex / subme=6 / psy=1 / psy_rd=1.00:0.00 / mixed_ref=1 / me_range=16 / chroma_me=1 / trellis=1 / 8x8dct=1 / cqm=0 / deadzone=21,11 / fast_pskip=1 / chroma_qp_offset=-2 / threads=6 / lookahead_threads=1 / sliced_threads=0 / nr=0 / decimate=1 / interlaced=0 / bluray_compat=0 / constrained_intra=0 / bframes=3 / b_pyramid=2 / b_adapt=1 / b_bias=0 / direct=1 / weightb=1 / open_gop=0 / weightp=1 / keyint=250 / keyint_min=23 / scenecut=40 / intra_refresh=0 / rc_lookahead=30 / rc=2pass / mbtree=1 / bitrate=1474 / ratetol=1.0 / qcomp=0.60 / qpmin=0 / qpmax=69 / qpstep=4 / cplxblur=20.0 / qblur=0.5 / vbv_maxrate=1474 / vbv_bufsize=2948 / nal_hrd=none / filler=0 / ip_ratio=1.40 / aq=1:1.00
Default : Да
Forced : Нет

Аудио:
Идентификатор : 2
Формат : AAC
Формат/Информация : Advanced Audio Codec
Профиль формата : LC
Идентификатор кодека : A_AAC-2
Продолжительность : 1 ч. 41 м.
Битрейт : 192 Кбит/сек
Каналы : 2 канала
Расположение каналов : Front: L R
Частота : 44,1 КГц
Частота кадров : 43,066 кадра/сек (1024 SPF)
Метод сжатия : С потерями
Размер потока : 140 Мбайт (12%)
Default : Да
Forced : Нет


















   Похожие торренты   Торрент   Размер 
В этой теме нет новых непрочитанных сообщений. Лос-Анджелес в огне / Kings (Дениз Гамзе Эргювен) [2017, триллер, драма, мелодрама, криминал, WEBDLRip] MVO / Драмы

22 | 0

1.46 ГБ

В этой теме нет новых непрочитанных сообщений. Хартлок / Heartlock (Джон Аарон) [2018, криминал, драма, мелодрама, WEBDLRip] MVO

23 | 0

1.24 ГБ

В этой теме нет новых непрочитанных сообщений. Несвобода / Unfreedom (Радж Амит Кумар) [2014, криминал, драма, триллер, мелодрама, WEBDLRip] MVO

8 | 2

1.34 ГБ

В этой теме нет новых непрочитанных сообщений. Убить за 68 / 68 Kill (Трент Хаага) [2017, триллер, комедия, мелодрама, криминал, WEBDLRip] MVO

6 | 0

1.45 ГБ

В этой теме нет новых непрочитанных сообщений. Цвет игры / Hei bai mi gong (Кам Ка-Вай) [2017, драма, криминал, WEBDLRip] MVO

17 | 0

1.37 ГБ

В этой теме нет новых непрочитанных сообщений. Разрешение / Permission (Брайан Крано) [2017, драма, мелодрама, комедия, WEBDLRip] MVO

26 | 0

1.37 ГБ

В этой теме нет новых непрочитанных сообщений. Осколки / Middleground (Алиса Хазанова) [2017, драма, мелодрама, WEBDLRip] MVO / Драмы

0 | 0

1.46 ГБ




Вы не можете начинать темы
Вы не можете отвечать на сообщения
Вы не можете редактировать свои сообщения
Вы не можете удалять свои сообщения
Вы не можете добавлять вложения

Перейти:  
 Вход
ppkBB3cker v.2 © 2008-2014 @ PPK
[ Time : 0.034s | 17 Queries | GZIP : Off ]

cron