img image001 image001 image001 image001 image001 image001 image001 image001 image001 image001 image001 image001 image001 image001 image001 image001

Planets Sun Sun Sun
Статистика раздачи
Автор: Снежана | Размер: 2.13 ГБ | Добавлен: 23 фев 2018
Раздают: 6    Качают: 0
Скачать торрент
Скачать торрент
Описание торрента

СообщениеДобавлено: 23 фев 2018 

Куда приводят мечты / What Dreams May Come

Перевод: Профессиональный (полное дублирование)
Субтитры: Русские, английские
Формат: WEB-DLRip-AVC, MKV, H.264, AC3
Страна: США, Новая Зеландия
Режиссер: Винсент Уорд
Жанр: фэнтези, драма, мелодрама
Продолжительность: 01:53:41
Год выпуска: 1998

В ролях: Робин Уильямс, Кьюба Гудинг мл., Аннабелла Шиорра, Макс фон Сюдов, Джессика Брукс Грант, Джош Пэддок, Розалинд Чао, Люсинда Дженни, Мэгги МакКарти, Уильма Бонет

Описание: После гибели Криса Нилсена в автокатастрофе он, обретя бессмертие, пытается остаться рядом со своей прекрасной, но смертной женой Энни. С помощью дружественного духа, приставленного к нему в качестве проводника, он начинает привыкать к своему новому существованию в окружении, которое иначе как райским не назовешь. Но когда его обезумевшая от горя жена кончает жизнь самоубийством, ее проклинают и навечно изгоняют в ад. Крис изо всех сил пытается отыскать любимую, чтобы всегда быть с ней, но еще никому и никогда не удавалось спасти грешную душу от ужасного, но заслуженного возмездия. Благодаря помощи своих небесных друзей Крис отправляется в самое опасное и мучительное путешествие в своей жизни, точнее, в жизни после смерти.



Видео: 1024x576 (16:9), 23.976 fps, AVC MPEG-4 (H.264), ~2181 kbps, 0.154 bit/pixel
Аудио: 48 kHz, AC3 Dolby Digital, 6 ch, ~448 kbps

Format : Matroska
Format version : Version 4 / Version 2
File size : 2.13 GiB
Duration : 1 h 53 min
Overall bit rate : 2 682 kb/s

Video
ID : 1
Format : AVC
Format/Info : Advanced Video Codec
Format profile :
Format settings : CABAC / 11 Ref Frames
Format settings, CABAC : Yes
Format settings, ReFrames : 11 frames
Codec ID : V_MPEG4/ISO/AVC
Duration : 1 h 53 min
Bit rate : 2 181 kb/s
Width : 1 024 pixels
Height : 576 pixels
Display aspect ratio : 16:9
Frame rate mode : Constant
Frame rate : 23.976 (24000/1001) FPS
Color space : YUV
Chroma subsampling : 4:2:0
Bit depth : 8 bits
Scan type : Progressive
Bits/(Pixel*Frame) : 0.154
Stream size : 1.73 GiB (81%)
Title : RIP_BY_-=DoMiNo=-
Writing library : x264 core 155 r2901M 7d0ff22
Encoding settings : cabac=1 / ref=11 / deblock=1:-3:-3 / analyse=0x3:0x133 / me=umh / subme=11 / psy=1 / psy_rd=1.00:0.15 / mixed_ref=1 / me_range=32 / chroma_me=1 / trellis=2 / 8x8dct=1 / cqm=0 / deadzone=21,11 / fast_pskip=1 / chroma_qp_offset=-3 / threads=6 / lookahead_threads=1 / sliced_threads=0 / nr=0 / decimate=1 / interlaced=0 / bluray_compat=0 / constrained_intra=0 / bframes=12 / b_pyramid=2 / b_adapt=2 / b_bias=0 / direct=3 / weightb=1 / open_gop=0 / weightp=2 / keyint=240 / keyint_min=24 / scenecut=40 / intra_refresh=0 / rc_lookahead=60 / rc=crf / mbtree=1 / crf=18.0 / qcomp=0.60 / qpmin=0 / qpmax=69 / qpstep=4 / ip_ratio=1.40 / aq=1:1.00
Language : English
Default : Yes
Forced : No
Color range : Limited
Color primaries : BT.709
Transfer characteristics : BT.709
Matrix coefficients : BT.709

Audio
ID : 2
Format : AC-3
Format/Info : Audio Coding 3
Codec ID : A_AC3
Duration : 1 h 53 min
Bit rate mode : Constant
Bit rate : 448 kb/s
Channel(s) : 6 channels
Channel positions : Front: L C R, Side: L R, LFE
Sampling rate : 48.0 kHz
Frame rate : 31.250 FPS (1536 SPF)
Bit depth : 16 bits
Compression mode : Lossy
Stream size : 365 MiB (17%)
Title : DUB - R5
Language : Russian
Service kind : Complete Main
Default : Yes
Forced : Yes

Text #1
ID : 3
Format : UTF-8
Codec ID : S_TEXT/UTF8
Codec ID/Info : UTF-8 Plain Text
Title : Russian Full
Language : Russian
Default : Yes
Forced : No

Text #2
ID : 4
Format : UTF-8
Codec ID : S_TEXT/UTF8
Codec ID/Info : UTF-8 Plain Text
Title : English Full
Language : English
Default : No
Forced : No












   Похожие торренты   Торрент   Размер 
В этой теме нет новых непрочитанных сообщений. Куда приводят мечты / What Dreams May Come (1998) Blu-Ray

14 | 4

34.58 ГБ

В этой теме нет новых непрочитанных сообщений. Куда приводят мечты / What Dreams May Come (1998) DVDRip

54 | 5

745.34 МБ

В этой теме нет новых непрочитанных сообщений. Куда приводят мечты / What Dreams May Come (1998) HDRip

194 | 16

1.46 ГБ

В этой теме нет новых непрочитанных сообщений. Куда приводят мечты / What Dreams May Come (1998) BDRip-AVC | D

364 | 28

1.71 ГБ

В этой теме нет новых непрочитанных сообщений. Куда приводят мечты / What Dreams May Come (1998) BDRip | A

373 | 9

2.18 ГБ

В этой теме нет новых непрочитанных сообщений. Куда приводят мечты / What Dreams May Come (1998) BDRip 1080p

387 | 50

5.77 ГБ

В этой теме нет новых непрочитанных сообщений. Куда приводят мечты / What Dreams May Come (1998) HDRip от HQ-ViDEO

7 | 3

2.18 ГБ




Вы не можете начинать темы
Вы не можете отвечать на сообщения
Вы не можете редактировать свои сообщения
Вы не можете удалять свои сообщения
Вы не можете добавлять вложения

Перейти:  
 Вход
ppkBB3cker v.2 © 2008-2014 @ PPK
[ Time : 0.031s | 17 Queries | GZIP : Off ]

cron