img image001 image001 image001 image001 image001 image001 image001 image001 image001 image001 image001 image001 image001 image001 image001 image001

Planets Sun Sun Sun
Статистика раздачи
Автор: Снежана | Размер: 1.46 ГБ | Добавлен: 26 фев 2018
Раздают: 18    Качают: 0
Скачать торрент
Скачать торрент
Описание торрента

СообщениеДобавлено: 26 фев 2018 

Счастливого дня смерти / Happy Death Day


Перевод: Профессиональный (полное дублирование) Лицензия
Субтитры: Pусские (полные + форс.)
Формат: BDRip-AVC, MKV, H264, AC3
Страна: США
Режиссер: Кристофер Лэндон
Жанр: ужасы, триллер, детектив, комедия
Продолжительность: 01:36:11
Год выпуска: 2017
В ролях: Джессика Рот, Израэль Бруссар, Руби Модин, Лаура Клифтон, Джейсон Бэйл, Роб Мелло, Рэйчел Мэттьюз, Рэмси Андерсон, Брэйди Льюис, Фи Ву

Описание: Каждый в универе мечтал попасть на её день рождения, но праздник был безнадежно испорчен незнакомцем в маске, убившим виновницу торжества. Однако судьба преподнесла имениннице леденящий душу подарок — бесконечный запас жизней. И теперь у девушки появился шанс вычислить своего убийцу, ведь этот день будет повторяться снова и снова…



Видео: 1032x432p (2.40:1), 23,976 fps, AVC MPEG-4 (x264), , ~ 1 725 Кбит/сек, 0.161 bit/pixel
Аудио: 48 kHz, AC3 Dolby Digital, 3/2 (L,C,R,l,r) + LFE ch, ~ 448 kbps avg





Общее
Уникальный идентификатор : 173588587665813070542340630232208239626 (0x8297F2266EF6333FA4558BA330FFEC0A)
Полное имя : E:\Закачка-2\Schastlivogo.Dnya.Smerti.2017.RUS.BDRip.x264.-HELLYWOOD.mkv
Формат : Matroska
Версия формата : Version 4 / Version 2
Размер файла : 1,46 Гбайт
Продолжительность : 1 ч. 36 м.
Режим общего битрейта : Переменный
Общий поток : 2175 Кбит/сек
Название фильма : Happy Death Day (2017)
Дата кодирования : UTC 2018-02-01 14:50:47
Программа кодирования : mkvmerge v5.9.0 ('On The Loose') built on Dec 15 2012 16:39:58
Библиотека кодирования : libebml v1.3.0 + libmatroska v1.4.0

Видео
Идентификатор : 1
Формат : AVC
Формат/Информация : Advanced Video Codec
Профиль формата :
Параметр CABAC формата : Да
Параметр ReFrames формата : 5 кадров
Идентификатор кодека : V_MPEG4/ISO/AVC
Продолжительность : 1 ч. 36 м.
Вид битрейта : Переменный
Битрейт : 1725 Кбит/сек
Максимальный битрейт : 50,0 Мбит/сек
Ширина : 1032 пикселя
Высота : 432 пикселя
Соотношение сторон : 2,40:1
Режим частоты кадров : Постоянный
Частота кадров : 23,976 (24000/1001) кадра/сек
Цветовое пространство : YUV
Субдискретизация насыщенности : 4:2:0
Битовая глубина : 8 бит
Тип развёртки : Прогрессивная
Бит/(Пиксели*Кадры) : 0.161
Размер потока : 1,17 Гбайт (80%)
Заголовок : potroks
Библиотека кодирования : x264 core 155 r2893M b00bcaf
Настройки программы : cabac=1 / ref=6 / deblock=1:-1:-1 / analyse=0x3:0x132 / me=umh / subme=11 / psy=1 / psy_rd=1.00:0.05 / mixed_ref=1 / me_range=48 / chroma_me=1 / trellis=2 / 8x8dct=1 / cqm=0 / deadzone=21,11 / fast_pskip=0 / chroma_qp_offset=-3 / threads=9 / lookahead_threads=1 / sliced_threads=0 / nr=0 / decimate=0 / interlaced=0 / bluray_compat=1 / constrained_intra=0 / bframes=3 / b_pyramid=1 / b_adapt=2 / b_bias=0 / direct=3 / weightb=1 / open_gop=0 / weightp=1 / keyint=240 / keyint_min=1 / scenecut=40 / intra_refresh=0 / rc_lookahead=100 / rc=2pass / mbtree=0 / bitrate=1725 / ratetol=1.0 / qcomp=0.70 / qpmin=0 / qpmax=69 / qpstep=4 / cplxblur=20.0 / qblur=0.5 / vbv_maxrate=50000 / vbv_bufsize=50000 / nal_hrd=vbr / filler=0 / ip_ratio=1.40 / pb_ratio=1.30 / aq=1:0.80
Язык : English
Default : Да
Forced : Нет

Аудио
Идентификатор : 2
Формат : AC-3
Формат/Информация : Audio Coding 3
Расширение режима : CM (complete main)
Параметр Endianness формата : Big
Идентификатор кодека : A_AC3
Продолжительность : 1 ч. 36 м.
Вид битрейта : Постоянный
Битрейт : 384 Кбит/сек
Каналы : 6 каналов
Расположение каналов : Front: L C R, Side: L R, LFE
Частота : 48,0 КГц
Частота кадров : 31,250 кадров/сек (1536 spf)
Метод сжатия : С потерями
Размер потока : 264 Мбайт (18%)
Заголовок : Dub | DD 5.1 @ 384 kbps - iTunes
Язык : Russian
Default : Да
Forced : Нет

Меню
00:00:00.000 : :Chapter 01
00:04:54.460 : :Chapter 02
00:10:26.000 : :Chapter 03
00:14:10.683 : :Chapter 04
00:21:46.722 : :Chapter 05
00:25:08.798 : :Chapter 06
00:29:37.859 : :Chapter 07
00:33:09.320 : :Chapter 08
00:37:50.142 : :Chapter 09
00:41:46.170 : :Chapter 10
00:44:54.191 : :Chapter 11
00:53:07.934 : :Chapter 12
00:57:28.361 : :Chapter 13
01:00:18.448 : :Chapter 14
01:07:41.557 : :Chapter 15
01:12:16.290 : :Chapter 16
01:16:35.090 : :Chapter 17
01:21:17.080 : :Chapter 18
01:27:13.645 : :Chapter 19
01:30:24.168 : :Chapter 20





   Похожие торренты   Торрент   Размер 
В этой теме нет новых непрочитанных сообщений. Счастливого дня смерти / Happy Death Day (Кристофер Лэндон) [2017, ужасы, триллер, детектив, комедия, BDRip] DUB

223 | 4

1.46 ГБ

В этой теме нет новых непрочитанных сообщений. Счастливого дня смерти / Happy Death Day (Кристофер Лэндон) [2017, ужасы, триллер, детектив, комедия, BDRip-AVC] DUB

20 | 0

2.18 ГБ

В этой теме нет новых непрочитанных сообщений. Счастливого дня смерти / Happy Death Day (Кристофер Лэндон) [2017, ужасы, триллер, детектив, комедия, BDRip-AVC] DUB / Мистика

18 | 0

746.18 МБ

В этой теме нет новых непрочитанных сообщений. Счастливого дня смерти / Happy Death Day (Кристофер Лэндон) [2017 , ужасы, триллер, детектив, комедия, HDRip-AVC] AVO

8 | 0

2.18 ГБ

В этой теме нет новых непрочитанных сообщений. Счастливого дня смерти / Happy Death Day (2017) BDRip-AVC от HELLYWOOD | A

9 | 0

1.46 ГБ

В этой теме нет новых непрочитанных сообщений. Счастливого дня смерти / Happy Death Day (2017) BDRip-AVC от Generalfilm | iTunes

30 | 0

1.4 ГБ

В этой теме нет новых непрочитанных сообщений. Счастливого дня смерти / Happy Death Day (2017) BDRip от k.e.n & MegaPeer | AlexFilm

27 | 1

744.36 МБ




Вы не можете начинать темы
Вы не можете отвечать на сообщения
Вы не можете редактировать свои сообщения
Вы не можете удалять свои сообщения
Вы не можете добавлять вложения

Перейти:  
 Вход
ppkBB3cker v.2 © 2008-2014 @ PPK
[ Time : 0.047s | 17 Queries | GZIP : Off ]

cron