img image001 image001 image001 image001 image001 image001 image001 image001 image001 image001 image001 image001 image001 image001 image001 image001

Planets Sun Sun Sun
Статистика раздачи
Автор: Снежана | Размер: 1.45 ГБ | Добавлен: 05 мар 2018
Раздают: 8    Качают: 6
Скачать торрент
Скачать торрент
Описание торрента

СообщениеДобавлено: 05 мар 2018 

Форма воды / The Shape of Water


Перевод: Любительский (двухголосый) [HiWay Grope], субтитры: отсутствуют
Формат: WEBDLRip-AVC, MKV, H.264, AC3
Страна: Канада, США
Режиссер: Гильермо дель Торо
Жанр: ужасы, фэнтези, триллер, драма, мелодрама, приключения
Продолжительность: 02:03:58
Год выпуска: 2017
В ролях: Салли Хокинс, Майкл Шеннон, Ричард Дженкинс, Октавия Спенсер, Майкл Стулбарг, Даг Джонс, Дэвид Хьюлетт, Ник Сирси, Стюарт Арнотт, Найджел Беннетт

Описание: Действие разворачивается в 1963 году. Главная героиня — немая уборщица в научной лаборатории. В стенах секретного учреждения идёт работа по изучению отловленного человека-амфибии. Женщина влюбляется в мутанта и помогает ему бежать...



Видео: 1024x576 (16:9), 23.976 fps, AVC MPEG-4 (H.264), ~1451 kbps, 0.103 bit/pixel
Аудио: 48 kHz, AC3 Dolby Digital, 2/0 (L,R) ch, ~192 kbps

Доп. информация: РЕКЛАМЫ НЕТ!
General
Unique ID : 54015543748708518832446619473301034451 (0x28A303EBCD4193CF6B0C1646D0A155D3)
Complete name : C:\Users\Юрик\Desktop\The.Shape.Of.Water.L2.2017_[tfile.ru].mkv
Format : Matroska
Format version : Version 2
File size : 1.45 GiB
Duration : 2 h 3 min
Overall bit rate : 1 677 kb/s
Writing application : Lavf55.12.100
Writing library : Lavf55.12.100

Video
ID : 2
Format : AVC
Format/Info : Advanced Video Codec
Format profile :
Format settings, CABAC : Yes
Format settings, RefFrames : 2 frames
Format settings, GOP : M=1, N=12
Codec ID : V_MPEG4/ISO/AVC
Duration : 2 h 3 min
Bit rate : 1 451 kb/s
Width : 1 024 pixels
Height : 576 pixels
Display aspect ratio : 16:9
Frame rate mode : Constant
Frame rate : 23.976 (24000/1001) FPS
Color space : YUV
Chroma subsampling : 4:2:0
Bit depth : 8 bits
Scan type : Progressive
Bits/(Pixel*Frame) : 0.103
Stream size : 1.26 GiB (87%)
Default : Yes
Forced : No
Statistics Tags Issue : mkvmerge v20.0.0 ('I Am The Sun') 64-bit 2018-02-27 09:36:26 / Lavf55.12.100
FromStats_BitRate : 5086581
FromStats_Duration : 02:03:57.972000000
FromStats_FrameCount : 178333
FromStats_StreamSize : 4729231758

Audio
ID : 1
Format : AC-3
Format/Info : Audio Coding 3
Format settings, Endianness : Big
Codec ID : A_AC3
Duration : 2 h 3 min
Bit rate mode : Constant
Bit rate : 192 kb/s
Channel(s) : 2 channels
Channel positions : Front: L R
Sampling rate : 48.0 kHz
Frame rate : 31.250 FPS (1536 SPF)
Bit depth : 16 bits
Compression mode : Lossy
Stream size : 170 MiB (11%)
Title : HiWay Grope
Language : Russian
Service kind : Complete Main
Default : Yes
Forced : No

















   Похожие торренты   Торрент   Размер 
В этой теме нет новых непрочитанных сообщений. Форма воды / The Shape of Water (Гильермо дель Торо) [2017, ужасы, фэнтези, триллер, драма, мелодрама, приключения, WEB-DLRip] DUB

22 | 5

2.05 ГБ

В этой теме нет новых непрочитанных сообщений. Форма воды / The Shape of Water (Гильермо дель Торо) [2017, ужасы, фэнтези, триллер, драма, мелодрама, приключения, WEB-DLRip] MVO

98 | 13

1.37 ГБ

В этой теме нет новых непрочитанных сообщений. Форма воды / The Shape of Water (Гильермо дель Торо) [2017, ужасы, фэнтези, триллер, драма, мелодрама, приключения, WEB-DLRip] DUB

39 | 5

1.31 ГБ

В этой теме нет новых непрочитанных сообщений. Форма воды / The Shape of Water (Гильермо дель Торо) [2017, ужасы, фэнтези, триллер, драма, мелодрама, приключения, BDRip-AVC] DVO

39 | 0

2.81 ГБ

В этой теме нет новых непрочитанных сообщений. Форма воды / The Shape of Water (Гильермо дель Торо) [2017, фэнтези, драма, BDRip] DUB

618 | 22

1.46 ГБ

В этой теме нет новых непрочитанных сообщений. Форма воды / The Shape of Water (Гильермо дель Торо) [2017, фэнтези, драма, BDRip] DUB

255 | 8

2.13 ГБ

В этой теме нет новых непрочитанных сообщений. Форма воды / The Shape of Water (Гильермо дель Торо) [2017, фэнтези, драма, HDRip] DUB

78 | 4

2.05 ГБ




Вы не можете начинать темы
Вы не можете отвечать на сообщения
Вы не можете редактировать свои сообщения
Вы не можете удалять свои сообщения
Вы не можете добавлять вложения

Перейти:  
 Вход
ppkBB3cker v.2 © 2008-2014 @ PPK
[ Time : 0.042s | 15 Queries | GZIP : Off ]

cron