img image001 image001 image001 image001 image001 image001 image001 image001 image001 image001 image001 image001 image001 image001 image001 image001

Planets Sun Sun Sun
Статистика раздачи
Автор: Снежана | Размер: 1.46 ГБ | Добавлен: 05 мар 2018
Раздают: 13    Качают: 0
Скачать торрент
Скачать торрент
Описание торрента

СообщениеДобавлено: 05 мар 2018 

Убийство в Восточном экспрессе / Murder on the Orient Express


Перевод: Профессиональный (полное дублирование) Лицензия
Субтитры: Pусские, английские
Формат: BDRip, MKV, H264, AC3
Страна: США, Великобритания, Мальта, Канада
Режиссер: Кеннет Брана
Жанр: драма, криминал, детектив
Продолжительность: 01:53:55
Год выпуска: 2017
В ролях: Кеннет Брана, Пенелопа Крус, Уиллем Дефо, Джуди Денч, Джонни Депп, Джош Гад, Дерек Джекоби, Лесли Одом мл., Мишель Пфайффер, Дэйзи Ридли

Описание: Путешествие на одном из самых роскошных поездов Европы неожиданно превращается в одну из самых стильных и захватывающих загадок в истории. Фильм рассказывает историю тринадцати пассажиров поезда, каждый из которых находится под подозрением. И только сыщик должен как можно быстрее разгадать головоломку, прежде чем преступник нанесет новый удар.



Видео: 984x412p (2.40:1), 23,976 fps, AVC MPEG-4 (x264), , ~ 1 387 Кбит/сек, 0.143 bit/pixel
Аудио: 48 kHz, AC3 Dolby Digital, 3/2 (L,C,R,l,r) + LFE ch, ~ 448 kbps avg





Общее
Уникальный идентификатор : 246939039809177933243155107013299965884 (0xB9C6BAA7A70449FFAE0FC23137F68FBC)
Полное имя : E:\Закачка-2\Ubiystvo.v.Vostochnom.Ekspresse.2017.RUS.BDRip.x264.-HELLYWOOD.mkv
Формат : Matroska
Версия формата : Version 4 / Version 2
Размер файла : 1,46 Гбайт
Продолжительность : 1 ч. 53 м.
Общий поток : 1837 Кбит/сек
Название фильма : Murder on the Orient Express (2017)
Дата кодирования : UTC 2018-03-04 08:59:11
Программа кодирования : mkvmerge v5.9.0 ('On The Loose') built on Dec 15 2012 16:39:58
Библиотека кодирования : libebml v1.3.0 + libmatroska v1.4.0

Видео
Идентификатор : 1
Формат : AVC
Формат/Информация : Advanced Video Codec
Профиль формата :
Параметр CABAC формата : Да
Параметр ReFrames формата : 12 кадров
Идентификатор кодека : V_MPEG4/ISO/AVC
Продолжительность : 1 ч. 53 м.
Битрейт : 1387 Кбит/сек
Ширина : 984 пикселя
Высота : 412 пикселей
Соотношение сторон : 2,40:1
Режим частоты кадров : Постоянный
Частота кадров : 23,976 (24000/1001) кадра/сек
Цветовое пространство : YUV
Субдискретизация насыщенности : 4:2:0
Битовая глубина : 8 бит
Тип развёртки : Прогрессивная
Бит/(Пиксели*Кадры) : 0.143
Размер потока : 1,08 Гбайт (74%)
Заголовок : potroks
Библиотека кодирования : x264 core 155 r2901M 7d0ff22
Настройки программы : cabac=1 / ref=12 / deblock=1:-1:-1 / analyse=0x3:0x131 / me=umh / subme=11 / psy=1 / psy_rd=1.00:0.05 / mixed_ref=1 / me_range=48 / chroma_me=1 / trellis=2 / 8x8dct=1 / cqm=0 / deadzone=21,11 / fast_pskip=0 / chroma_qp_offset=-3 / threads=9 / lookahead_threads=2 / sliced_threads=0 / nr=0 / decimate=0 / interlaced=0 / bluray_compat=0 / constrained_intra=0 / bframes=13 / b_pyramid=2 / b_adapt=2 / b_bias=0 / direct=3 / weightb=1 / open_gop=0 / weightp=2 / keyint=240 / keyint_min=23 / scenecut=40 / intra_refresh=0 / rc_lookahead=100 / rc=2pass / mbtree=0 / bitrate=1387 / ratetol=1.0 / qcomp=0.70 / qpmin=0 / qpmax=69 / qpstep=4 / cplxblur=20.0 / qblur=0.5 / vbv_maxrate=50000 / vbv_bufsize=50000 / nal_hrd=none / filler=0 / ip_ratio=1.40 / pb_ratio=1.30 / aq=2:0.80
Язык : English
Default : Да
Forced : Нет

Аудио
Идентификатор : 2
Формат : AC-3
Формат/Информация : Audio Coding 3
Расширение режима : CM (complete main)
Параметр Endianness формата : Big
Идентификатор кодека : A_AC3
Продолжительность : 1 ч. 53 м.
Вид битрейта : Постоянный
Битрейт : 448 Кбит/сек
Каналы : 6 каналов
Расположение каналов : Front: L C R, Side: L R, LFE
Частота : 48,0 КГц
Частота кадров : 31,250 кадров/сек (1536 spf)
Метод сжатия : С потерями
Размер потока : 365 Мбайт (24%)
Заголовок : Dub | DD 5.1 @ 448 kbps - Blu-ray CEE
Язык : Russian
Default : Да
Forced : Нет

Текст #1
Идентификатор : 3
Формат : UTF-8
Идентификатор кодека : S_TEXT/UTF8
Идентификатор кодека/Информация : UTF-8 Plain Text
Заголовок : Forced
Язык : Russian
Default : Да
Forced : Нет

Текст #2
Идентификатор : 4
Формат : UTF-8
Идентификатор кодека : S_TEXT/UTF8
Идентификатор кодека/Информация : UTF-8 Plain Text
Заголовок : iTunes
Язык : Russian
Default : Нет
Forced : Нет

Меню
00:00:00.000 : en:00:00:00.000
00:03:06.144 : en:00:03:06.144
00:06:42.193 : en:00:06:42.193
00:11:44.746 : en:00:11:44.746
00:18:26.188 : en:00:18:26.188
00:24:53.659 : en:00:24:53.659
00:33:14.159 : en:00:33:14.159
00:37:47.515 : en:00:37:47.515
00:43:16.511 : en:00:43:16.511
00:46:24.865 : en:00:46:24.865
00:51:23.580 : en:00:51:23.580
00:55:52.015 : en:00:55:52.015
01:00:03.183 : en:01:00:03.183
01:05:39.227 : en:01:05:39.227
01:10:40.153 : en:01:10:40.153
01:14:17.578 : en:01:14:17.578
01:18:05.055 : en:01:18:05.055
01:21:12.284 : en:01:21:12.284
01:24:39.366 : en:01:24:39.366
01:28:37.854 : en:01:28:37.854
01:32:28.376 : en:01:32:28.376
01:37:04.652 : en:01:37:04.652
01:40:30.024 : en:01:40:30.024
01:46:49.903 : en:01:46:49.903





   Похожие торренты   Торрент   Размер 
В этой теме нет новых непрочитанных сообщений. Убийство в Восточном экспрессе / Murder on the Orient Express (Кеннет Брана) [2017, драма, криминал, детектив, BDRip] DUB

38 | 0

1.46 ГБ

В этой теме нет новых непрочитанных сообщений. Убийство в Восточном экспрессе / Murder on the Orient Express (Кеннет Брана) [2017, драма, криминал, детектив, BDRip] DUB

21 | 0

2.18 ГБ

В этой теме нет новых непрочитанных сообщений. Убийство в Восточном экспрессе / Murder on the Orient Express (Кеннет Брана) [2017, драма, криминал, детектив, BDRip-AVC] DUB

87 | 2

2.18 ГБ

В этой теме нет новых непрочитанных сообщений. Убийство в Восточном экспрессе / Murder on the Orient Express (Кеннет Брана) [2017, драма, криминал, детектив, BDRip] MVO

2 | 5

2.18 ГБ

В этой теме нет новых непрочитанных сообщений. Убийство в Восточном экспрессе / Murder on the Orient Express (Кеннет Брана) [2017, драма, криминал, детектив, BDRip-AVC] MVO

8 | 6

2.03 ГБ

В этой теме нет новых непрочитанных сообщений. Убийство в Восточном экспрессе / Murder on the Orient Express (Кеннет Брана) [2017, драма, криминал, детектив, BDRip] DUB

247 | 6

1.41 ГБ

В этой теме нет новых непрочитанных сообщений. Убийство в Восточном экспрессе / Murder on the Orient Express (Кеннет Брана) [2017, драма, криминал, детектив, LowHDRip-AVC] DUB

12 | 5

746.52 МБ




Вы не можете начинать темы
Вы не можете отвечать на сообщения
Вы не можете редактировать свои сообщения
Вы не можете удалять свои сообщения
Вы не можете добавлять вложения

Перейти:  
 Вход
ppkBB3cker v.2 © 2008-2014 @ PPK
[ Time : 0.036s | 18 Queries | GZIP : Off ]

cron