img image001 image001 image001 image001 image001 image001 image001 image001 image001 image001 image001 image001 image001 image001 image001 image001

Planets Sun Sun Sun
Статистика раздачи
Автор: Снежана | Размер: 2.91 ГБ | Добавлен: 06 мар 2018
Раздают: 29    Качают: 5
Скачать торрент
Скачать торрент
Описание торрента

СообщениеДобавлено: 06 мар 2018 

Убийство в Восточном экспрессе / Murder on the Orient Express


Перевод: Профессиональный (полное дублирование) Лицензия
Субтитры: Pусские, английские
Формат: BDRip, MKV, H264, AC3
Страна: США, Великобритания, Мальта, Канада
Режиссер: Кеннет Брана
Жанр: драма, криминал, детектив
Продолжительность: 01:53:55
Год выпуска: 2017
В ролях: Кеннет Брана, Пенелопа Крус, Уиллем Дефо, Джуди Денч, Джонни Депп, Джош Гад, Дерек Джекоби, Лесли Одом мл., Мишель Пфайффер, Дэйзи Ридли

Описание: Путешествие на одном из самых роскошных поездов Европы неожиданно превращается в одну из самых стильных и захватывающих загадок в истории. Фильм рассказывает историю тринадцати пассажиров поезда, каждый из которых находится под подозрением. И только сыщик должен как можно быстрее разгадать головоломку, прежде чем преступник нанесет новый удар.



Видео: 1056x440p (2.40:1), 23,976 fps, AVC MPEG-4 (x264), , ~ 2 690 Кбит/сек, 0.241 bit/pixel

Аудио #1: Русский: 48 kHz/16 бит, AC3 Dolby Digital, 3/2 (L,C,R,l,r) + LFE ch, ~ 448 kbps avg [Профессиональный (полное дублирование), Лицензия]
Аудио #2: Английский: 48 kHz/16 бит, AC3 Dolby Digital, 3/2 (L,C,R,l,r) + LFE ch, ~ 448 kbps avg [Оригинал]





Complete name : D:VideoRipodelniaMurder.On.The.Orient.Express.2017.BDRip.x264.Rus.Eng.Ripodelnia.mkv
Format : Matroska
File size : 2.91 GiB
Duration : 1h 53mn
Overall bit rate : 3 659 Kbps
Encoded date : UTC 2018-03-05 11:31:43
Writing application : mkvmerge v20.0.0 ('I Am The Sun') 64-bit
Writing library : libebml v1.3.5 + libmatroska v1.4.8

Video
ID : 1
Format : AVC
Format/Info : Advanced Video Codec
Format profile :
Format settings, CABAC : Yes
Format settings, ReFrames : 14 frames
Muxing mode : Container profile=Unknown@4.1
Codec ID : V_MPEG4/ISO/AVC
Duration : 1h 53mn
Bit rate : 2 690 Kbps
Nominal bit rate : 2 762 Kbps
Width : 1 056 pixels
Height : 440 pixels
Display aspect ratio : 2.400
Frame rate : 23.976 fps
Resolution : 24 bits
Colorimetry : 4:2:0
Scan type : Progressive
Bits/(Pixel*Frame) : 0.241
Stream size : 2.14 GiB (73%)
Title : Ripodelnia
Writing library : x264 core 155 r2901 7d0ff22
Encoding settings : cabac=1 / ref=14 / deblock=1:-2:-2 / analyse=0x3:0x133 / me=umh / subme=11 / psy=1 / psy_rd=1.00:0.05 / mixed_ref=1 / me_range=48 / chroma_me=1 / trellis=2 / 8x8dct=1 / cqm=0 / deadzone=21,11 / fast_pskip=0 / chroma_qp_offset=-3 / threads=4 / lookahead_threads=1 / sliced_threads=0 / nr=0 / decimate=0 / interlaced=0 / bluray_compat=0 / constrained_intra=0 / bframes=16 / b_pyramid=2 / b_adapt=2 / b_bias=0 / direct=3 / weightb=1 / open_gop=0 / weightp=2 / keyint=240 / keyint_min=23 / scenecut=40 / intra_refresh=0 / rc_lookahead=60 / rc=2pass / mbtree=0 / bitrate=2762 / ratetol=1.0 / qcomp=0.70 / qpmin=0 / qpmax=69 / qpstep=4 / cplxblur=20.0 / qblur=0.5 / vbv_maxrate=50000 / vbv_bufsize=62500 / nal_hrd=none / filler=0 / ip_ratio=1.40 / pb_ratio=1.30 / aq=2:0.75

Audio #1
ID : 2
Format : AC-3
Format/Info : Audio Coding 3
Codec ID : A_AC3
Duration : 1h 53mn
Bit rate mode : Constant
Bit rate : 448 Kbps
Channel(s) : 6 channels
Channel positions : Front: L C R, Surround: L R, LFE
Sampling rate : 48.0 KHz
Stream size : 365 MiB (12%)
Title : Russian (Dub, BD EUR)
Language : Russian

Audio #2
ID : 3
Format : AC-3
Format/Info : Audio Coding 3
Codec ID : A_AC3
Duration : 1h 53mn
Bit rate mode : Constant
Bit rate : 448 Kbps
Channel(s) : 6 channels
Channel positions : Front: L C R, Surround: L R, LFE
Sampling rate : 48.0 KHz
Stream size : 365 MiB (12%)
Title : Original (eng)
Language : English

Text #1
ID : 4
Format : UTF-8
Codec ID : S_TEXT/UTF8
Codec ID/Info : UTF-8 Plain Text
Title : Russian (forced)
Language : Russian

Text #2
ID : 5
Format : UTF-8
Codec ID : S_TEXT/UTF8
Codec ID/Info : UTF-8 Plain Text
Title : Russian (full)
Language : Russian

Text #3
ID : 6
Format : UTF-8
Codec ID : S_TEXT/UTF8
Codec ID/Info : UTF-8 Plain Text
Title : English (full)
Language : English

Menu
00:00:00.000 : en:Chapter 1
00:03:06.144 : en:Chapter 2
00:06:42.193 : en:Chapter 3
00:11:44.745 : en:Chapter 4
00:18:26.188 : en:Chapter 5
00:24:53.658 : en:Chapter 6
00:33:14.158 : en:Chapter 7
00:37:47.515 : en:Chapter 8
00:43:16.510 : en:Chapter 9
00:46:24.865 : en:Chapter 10
00:51:23.580 : en:Chapter 11
00:55:52.015 : en:Chapter 12
01:00:03.182 : en:Chapter 13
01:05:39.226 : en:Chapter 14
01:10:40.152 : en:Chapter 15
01:14:17.578 : en:Chapter 16
01:18:05.055 : en:Chapter 17
01:21:12.284 : en:Chapter 18
01:24:39.365 : en:Chapter 19
01:28:37.854 : en:Chapter 20
01:32:28.376 : en:Chapter 21
01:37:04.652 : en:Chapter 22
01:40:30.024 : en:Chapter 23
01:46:49.903 : en:Chapter 24





   Похожие торренты   Торрент   Размер 
В этой теме нет новых непрочитанных сообщений. Убийство в Восточном экспрессе / Murder on the Orient Express (Кеннет Брана) [2017, драма, криминал, детектив, HDRip] DUB

323 | 19

1.45 ГБ

В этой теме нет новых непрочитанных сообщений. Убийство в Восточном экспрессе / Murder on the Orient Express (Кеннет Брана) [2017, драма, криминал, детектив, HDRip] MVO

443 | 1

1.46 ГБ

В этой теме нет новых непрочитанных сообщений. Убийство в Восточном экспрессе / Murder on the Orient Express (Кеннет Брана) [2017, драма, криминал, детектив, BDRip-AVC] MVO

12 | 6

2.03 ГБ

В этой теме нет новых непрочитанных сообщений. Убийство в Восточном экспрессе / Murder on the Orient Express (Кеннет Брана) [2017, драма, криминал, детектив, BDRip-AVC] DUB

87 | 2

2.18 ГБ

В этой теме нет новых непрочитанных сообщений. Убийство в Восточном экспрессе / Murder on the Orient Express (Кеннет Брана) [2017, драма, криминал, детектив, BDRip] DUB

21 | 0

2.18 ГБ

В этой теме нет новых непрочитанных сообщений. Убийство в Восточном экспрессе / Murder on the Orient Express (Кеннет Брана) [2017, драма, криминал, детектив, BDRip] MVO

2 | 5

2.18 ГБ

В этой теме нет новых непрочитанных сообщений. Убийство в Восточном экспрессе / Murder on the Orient Express (Кеннет Брана) [2017, драма, криминал, детектив, BDRip] DUB

44 | 0

1.46 ГБ




Вы не можете начинать темы
Вы не можете отвечать на сообщения
Вы не можете редактировать свои сообщения
Вы не можете удалять свои сообщения
Вы не можете добавлять вложения

Перейти:  
 Вход
ppkBB3cker v.2 © 2008-2014 @ PPK
[ Time : 0.030s | 16 Queries | GZIP : Off ]

cron