img image001 image001 image001 image001 image001 image001 image001 image001 image001 image001 image001 image001 image001 image001 image001 image001

Planets Sun Sun Sun
Статистика раздачи
Автор: Снежана | Размер: 1.91 ГБ | Добавлен: 06 мар 2018
Раздают: 26    Качают: 0
Скачать торрент
Скачать торрент
Описание торрента

СообщениеДобавлено: 06 мар 2018 

Безбашенные / Renegades



«5 морских котиков. $ 300 миллионов золотом. 1 невыполнимая миссия»

Перевод: Профессиональный (полное дублирование) Лицензия BD RUS
Cубтитры: отсутствуют
Формат: BDRip-AVC, MKV, H.264, AC3
Страна: Франция, Германия
Режиссер: Стивен Куэйл
Жанр: Боевик, триллер
Продолжительность: 01:45:56
Год выпуска: 2017
В ролях: Сильвия Хукс, Юэн Бремнер, Дж.К. Симмонс, Салливан Степлтон, Димитрий Леонидас, Чарли Бьюли, Диармед Мёрта, Клеменс Шик, Джошуа Генри, Славко Собин

Описание: На дне озера охваченной войной Боснии команда спецназа ВМС США «Морские котики» находит клад — золотые слитки стоимостью более $300 млн. Миссия команды, нарушившей присягу и рискующей жизнью — поднять золото со дна озера. Для других она была бы невыполнимой, но только не для этих безбашенных парней: у них есть 10 часов, чтобы завершить задуманное.



Видео: 1024x428 (2.40:1), 24,000 fps, AVC MPEG-4 (x264), , ~ 1 803 kbps avg, 0.161 bit/pixel

Аудио #1: Русский: 48 kHz/16 бит, AC3 Dolby Digital, 3/2 (L,C,R,l,r) + LFE ch, ~ 448 kbps avg [Профессиональный (полное дублирование), Лицензия]
Аудио #2: Английский: 48 kHz/16 бит, AC3 Dolby Digital, 3/2 (L,C,R,l,r) + LFE ch, ~ 448 kbps avg [Оригинал]





Общее
Уникальный идентификатор : 254865809340737400808599878792345061043 (0xBFBD5E91100E535F81D9EFB864A486B3)
Полное имя : D:ЗагрузкиRenegades.2017.BDRip(AVC).OlLanDGroup.mkv
Формат : Matroska
Версия формата : Version 4 / Version 2
Размер файла : 1,91 Гбайт
Продолжительность : 1 ч. 45 м.
Общий поток : 2585 Кбит/сек
Название фильма : Renegades.2017 #TorpedoUK#
Дата кодирования : UTC 2018-03-06 00:44:26
Программа кодирования : mkvmerge v6.5.0 ('Isn't she lovely') built on Oct 20 2013 12:50:05
Библиотека кодирования : libebml v1.3.0 + libmatroska v1.4.1

Видео
Идентификатор : 1
Формат : AVC
Формат/Информация : Advanced Video Codec
Профиль формата :
Параметр CABAC формата : Да
Параметр ReFrames формата : 10 кадров
Идентификатор кодека : V_MPEG4/ISO/AVC
Продолжительность : 1 ч. 45 м.
Битрейт : 1691 Кбит/сек
Ширина : 1024 пикселя
Высота : 428 пикселей
Соотношение сторон : 2,40:1
Режим частоты кадров : Постоянный
Частота кадров : 24,000 кадра/сек
Цветовое пространство : YUV
Субдискретизация насыщенности : 4:2:0
Битовая глубина : 8 бит
Тип развёртки : Прогрессивная
Бит/(Пиксели*Кадры) : 0.161
Размер потока : 1,21 Гбайт (63%)
Библиотека кодирования : x264 core 146 r2538 121396c
Настройки программы : cabac=1 / ref=10 / deblock=1:-3:-3 / analyse=0x3:0x133 / me=umh / subme=11 / psy=1 / psy_rd=1.00:0.05 / mixed_ref=1 / me_range=48 / chroma_me=1 / trellis=2 / 8x8dct=1 / cqm=0 / deadzone=21,11 / fast_pskip=1 / chroma_qp_offset=-3 / threads=6 / lookahead_threads=1 / sliced_threads=0 / nr=0 / decimate=1 / interlaced=0 / bluray_compat=0 / constrained_intra=0 / bframes=10 / b_pyramid=2 / b_adapt=2 / b_bias=0 / direct=3 / weightb=1 / open_gop=0 / weightp=2 / keyint=240 / keyint_min=24 / scenecut=40 / intra_refresh=0 / rc_lookahead=40 / rc=2pass / mbtree=0 / bitrate=1691 / ratetol=1.0 / qcomp=0.60 / qpmin=0 / qpmax=69 / qpstep=4 / cplxblur=20.0 / qblur=0.5 / vbv_maxrate=50000 / vbv_bufsize=62500 / nal_hrd=none / filler=0 / ip_ratio=1.40 / pb_ratio=1.30 / aq=1:1.00
Язык : English
Default : Да
Forced : Нет

Аудио #1
Идентификатор : 2
Формат : AC-3
Формат/Информация : Audio Coding 3
Расширение режима : CM (complete main)
Параметр Endianness формата : Big
Идентификатор кодека : A_AC3
Продолжительность : 1 ч. 45 м.
Вид битрейта : Постоянный
Битрейт : 448 Кбит/сек
Каналы : 6 каналов
Расположение каналов : Front: L C R, Side: L R, LFE
Частота : 48,0 КГц
Частота кадров : 31,250 кадров/сек (1536 spf)
Метод сжатия : С потерями
Размер потока : 339 Мбайт (17%)
Заголовок : Лицензия
Язык : Russian
Default : Да
Forced : Нет

Аудио #2
Идентификатор : 3
Формат : AC-3
Формат/Информация : Audio Coding 3
Расширение режима : CM (complete main)
Параметр Endianness формата : Big
Идентификатор кодека : A_AC3
Продолжительность : 1 ч. 45 м.
Вид битрейта : Постоянный
Битрейт : 448 Кбит/сек
Каналы : 6 каналов
Расположение каналов : Front: L C R, Side: L R, LFE
Частота : 48,0 КГц
Частота кадров : 31,250 кадров/сек (1536 spf)
Метод сжатия : С потерями
Размер потока : 339 Мбайт (17%)
Заголовок : Original
Язык : English
Default : Нет
Forced : Нет

Текст
Идентификатор : 4
Формат : UTF-8
Идентификатор кодека : S_TEXT/UTF8
Идентификатор кодека/Информация : UTF-8 Plain Text
Заголовок : Full
Язык : English
Default : Нет
Forced : Нет

Меню
00:00:00.000 : en:Chapter 1
00:00:49.500 : en:Chapter 2
00:08:55.291 : en:Chapter 3
00:18:57.291 : en:Chapter 4
00:25:43.458 : en:Chapter 5
00:34:06.291 : en:Chapter 6
00:45:40.208 : en:Chapter 7
00:51:21.666 : en:Chapter 8
00:59:01.416 : en:Chapter 9
01:08:51.208 : en:Chapter 10
01:15:51.875 : en:Chapter 11
01:25:10.750 : en:Chapter 12
01:36:09.875 : en:Chapter 13





   Похожие торренты   Торрент   Размер 
В этой теме нет новых непрочитанных сообщений. Безбашенные / Renegades ( Стивен Куэйл) [2017, Боевик, триллер, BDRip] DUB / Боевики /Action

238 | 0

1.46 ГБ

В этой теме нет новых непрочитанных сообщений. Безбашенные / Renegades ( Стивен Куэйл) [2017, Боевик, триллер, BDRip] DUB / Боевики /Action

17 | 0

747.71 МБ

В этой теме нет новых непрочитанных сообщений. Безбашенные / Renegades (2017) CAMRip | D

38 | 12

1.37 ГБ

В этой теме нет новых непрочитанных сообщений. Безбашенные / Renegades (2017) WEB-DLRip от Generalfilm | КПК | iTunes

23 | 3

401.78 МБ

В этой теме нет новых непрочитанных сообщений. Безбашенные / Renegades (2017) BDRemux 1080p от ExKinoRay | iTunes

14 | 4

26.64 ГБ

В этой теме нет новых непрочитанных сообщений. Первое убийство / First Kill (Стивен С. Миллер) [2017, боевик, триллер, WEBDLRip] MVO

20 | 12

1.37 ГБ

В этой теме нет новых непрочитанных сообщений. Первое убийство / First Kill (Стивен С. Миллер) [2017, боевик, триллер, WEBDLRip] VO / Боевики /Action

8 | 2

1.45 ГБ




Вы не можете начинать темы
Вы не можете отвечать на сообщения
Вы не можете редактировать свои сообщения
Вы не можете удалять свои сообщения
Вы не можете добавлять вложения

Перейти:  
 Вход
ppkBB3cker v.2 © 2008-2014 @ PPK
[ Time : 0.031s | 17 Queries | GZIP : Off ]

cron