img image001 image001 image001 image001 image001 image001 image001 image001 image001 image001 image001 image001 image001 image001 image001 image001

Planets Sun Sun Sun
Статистика раздачи
Автор: Снежана | Размер: 1.46 ГБ | Добавлен: 06 мар 2018
Раздают: 18    Качают: 10
Скачать торрент
Скачать торрент
Описание торрента

СообщениеДобавлено: 06 мар 2018 

Джуманджи: Зов джунглей / Jumanji: Welcome to the Jungle
Оценка релиза: 

Перевод: Профессиональный (полное дублирование) [iTunes], субтитры: отсутствуют
Формат: WEBDLRip-AVC, MKV, H.264, AC3
Страна: США
Режиссер: Джейк Кэздан
Жанр: фэнтези, боевик, комедия, приключения, семейный
Продолжительность: 01:59:01
Год выпуска: 2017
В ролях: Дуэйн Джонсон, Кевин Харт, Джек Блэк, Карен Гиллан, Риз Дэрби, Бобби Каннавале, Ник Джонас, Алекс Вулф, Сер Дариус Блэйн, Мэдисон Исман

Описание: Четверо подростков оказываются внутри игры «Джуманджи». Их ждет схватка с носорогами, черными мамбами, а на каждом шагу будет подстерегать бесконечная череда ловушек и головоломок. Чтобы пройти игру и остаться в живых, им придется перевоплотиться в персонажей игры: робкий и застенчивый Спенсер превращается в отважного и сильного исследователя, здоровяк Фридж — в коротышку, модница и красавица Беттани — в профессора, а неуклюжая и нескладная Марта становится бесстрашной и ловкой амазонкой. Друзьям придется привыкнуть к совершенно новым и таким непривычным для себя ролям и найти дорогу домой.



Видео: 1024x432 (2.40:1), 23,976 fps, AVC MPEG-4 (x264), , ~ 1335 kb/s, 0.126 bit/pixel
Аудио: 48 kHz, AC3 Dolby Digital, 3/2 (L,C,R,l,r) + LFE ch, ~384 kbps
General
Unique ID : 253384558593619587032882392720224282799 (0xBEA017442DD4C857736D14BC99BBE8AF)
Complete name : C:\Users\Юрик\Desktop\Jumanji.Welcome.to.the.Jungle.2017_[tfile.ru].mkv
Format : Matroska
Format version : Version 2
File size : 1.46 GiB
Duration : 1 h 59 min
Overall bit rate : 1 753 kb/s
Writing application : Lavf55.12.100
Writing library : Lavf55.12.100

Video
ID : 2
Format : AVC
Format/Info : Advanced Video Codec
Format profile :
Format settings, CABAC : Yes
Format settings, RefFrames : 2 frames
Format settings, GOP : M=1, N=12
Codec ID : V_MPEG4/ISO/AVC
Duration : 1 h 59 min
Bit rate : 1 335 kb/s
Width : 1 024 pixels
Height : 432 pixels
Display aspect ratio : 2.40:1
Frame rate mode : Constant
Frame rate : 23.976 (24000/1001) FPS
Color space : YUV
Chroma subsampling : 4:2:0
Bit depth : 8 bits
Scan type : Progressive
Bits/(Pixel*Frame) : 0.126
Stream size : 1.11 GiB (76%)
Language : English
Default : Yes
Forced : No
Statistics Tags Issue : mkvmerge v21.0.0 ('Tardigrades Will Inherit The Earth') 64-bit 2018-03-05 20:00:55 / Lavf55.12.100
FromStats_BitRate : 4007693
FromStats_Duration : 01:59:01.725000000
FromStats_FrameCount : 171231
FromStats_StreamSize : 3577730787

Audio
ID : 1
Format : AC-3
Format/Info : Audio Coding 3
Format settings, Endianness : Big
Codec ID : A_AC3
Duration : 1 h 59 min
Bit rate mode : Constant
Bit rate : 384 kb/s
Channel(s) : 6 channels
Channel positions : Front: L C R, Side: L R, LFE
Sampling rate : 48.0 kHz
Frame rate : 31.250 FPS (1536 SPF)
Bit depth : 16 bits
Compression mode : Lossy
Stream size : 327 MiB (22%)
Title : iTunes
Language : Russian
Service kind : Complete Main
Default : Yes
Forced : No
Statistics Tags Issue : mkvmerge v21.0.0 ('Tardigrades Will Inherit The Earth') 64-bit 2018-03-05 20:00:55 / Lavf55.12.100
FromStats_BitRate : 384000
FromStats_Duration : 01:59:01.792000000
FromStats_FrameCount : 223181
FromStats_StreamSize : 342806016





















   Похожие торренты   Торрент   Размер 
В этой теме нет новых непрочитанных сообщений. Джуманджи: Зов джунглей / Jumanji: Welcome to the Jungle (Джейк Кэздан) [2017, фэнтези, боевик, комедия, приключения, WEBDLRip-AVC] DUB

33 | 0

1.45 ГБ

В этой теме нет новых непрочитанных сообщений. Джуманджи: Зов джунглей / Jumanji: Welcome to the Jungle (Джейк Кэздан) [2017, фэнтези, боевик, комедия, приключения, семейный, TeleSynch] DUB

139 | 10

1.46 ГБ

В этой теме нет новых непрочитанных сообщений. Джуманджи: Зов джунглей / Jumanji: Welcome to the Jungle (Джейк Кэздан) [2017, фэнтези, боевик, комедия, приключения, BDRip] DUB

2033 | 40

1.41 ГБ

В этой теме нет новых непрочитанных сообщений. Джуманджи: Зов джунглей / Jumanji: Welcome to the Jungle (Джейк Кэздан) [2017, фэнтези, боевик, комедия, приключения, HDRip] DUB

580 | 0

1.37 ГБ

В этой теме нет новых непрочитанных сообщений. Джуманджи: Зов джунглей / Jumanji: Welcome to the Jungle (Джейк Кэздан) [2017, фэнтези, боевик, комедия, приключения, HDRip] DUB

333 | 22

2.05 ГБ

В этой теме нет новых непрочитанных сообщений. Джуманджи: Зов джунглей / Jumanji: Welcome to the Jungle (Джейк Кэздан) [2017, фэнтези, боевик, комедия, приключения, WEB-DLRip] DUB

1402 | 40

1.46 ГБ

В этой теме нет новых непрочитанных сообщений. Джуманджи: Зов джунглей / Jumanji: Welcome to the Jungle (Джейк Кэздан) [2017, фэнтези, боевик, комедия, приключения, WEB-DLRip] DUB

37 | 0

2.05 ГБ




Вы не можете начинать темы
Вы не можете отвечать на сообщения
Вы не можете редактировать свои сообщения
Вы не можете удалять свои сообщения
Вы не можете добавлять вложения

Перейти:  
 Вход
ppkBB3cker v.2 © 2008-2014 @ PPK
[ Time : 0.022s | 15 Queries | GZIP : Off ]

cron