img image001 image001 image001 image001 image001 image001 image001 image001 image001 image001 image001 image001 image001 image001 image001 image001

Planets Sun Sun Sun
Статистика раздачи
Автор: Снежана | Размер: 1.4 ГБ | Добавлен: 07 мар 2018
Раздают: 44    Качают: 4
Скачать торрент
Скачать торрент
Описание торрента

СообщениеДобавлено: 07 мар 2018 

Форма воды / The Shape of Water

Перевод: Профессиональный (полное дублирование) iTunes
Субтитры: Русские
Формат: BDRip-AVC, MKV, H.264, AC3
Страна: Канада, США
Режиссер: Гильермо дель Торо
Жанр: фэнтези, драма
Продолжительность: 02:03:19
Год выпуска: 2017

В ролях: Салли Хокинс, Майкл Шеннон, Ричард Дженкинс, Октавия Спенсер, Майкл Стулбарг, Даг Джонс, Дэвид Хьюлетт, Ник Сирси, Стюарт Арнотт, Найджел Беннетт

Описание: Действие разворачивается в 1963 году. Главная героиня — немая уборщица в научной лаборатории. В стенах секретного учреждения идёт работа по изучению отловленного человека-амфибии. Женщина влюбляется в мутанта и помогает ему бежать...



Видео: 912x492 (1.85:1), 23.976 fps, AVC MPEG-4 (H.264), ~1247 kbps, 0.116 bit/pixel
Аудио: 48 kHz, AC3 Dolby Digital, 6 ch, ~384 kbps

Доп. информация: 4 премии "Оскар", 9 номинаций. Автор рипа: potroks
Формат : Matroska
Размер файла : 1,40 Гбайт
Продолжительность : 2 ч. 3 м.
Общий поток : 1631 Кбит/сек
Название фильма : The Shape of Water (2017)
Дата кодирования : UTC 2018-03-07 14:03:10
Программа кодирования : mkvmerge v5.9.0 ('On The Loose') built on Dec 15 2012 16:39:58
Библиотека кодирования : libebml v1.3.0 + libmatroska v1.4.0

Видео
Идентификатор : 1
Формат : AVC
Формат/Информация : Advanced Video Codec
Профиль формата :
Параметр CABAC формата : Да
Параметр ReFrames формата : 12 кадров
Параметры GOP формата : M=14, N=24
Режим смешивания : Header stripping
Идентификатор кодека : V_MPEG4/ISO/AVC
Продолжительность : 2 ч. 3 м.
Битрейт : 1247 Кбит/сек
Ширина : 912 пикс.
Высота : 492 пикс.
Соотношение сторон : 1,854
Частота кадров : 23,976 кадр/сек
Цветовое пространство : YUV
Подвыборка цветности : 4:2:0
Битовая глубина : 8 бит
Тип развёртки : Прогрессивная
Бит/(Пиксели*Кадры) : 0.116
Размер потока : 1,05 Гбайт (74%)
Заголовок : potroks
Библиотека кодирования : x264 core 155 r2901M 7d0ff22
Настройки программы : cabac=1 / ref=12 / deblock=1:-2:-2 / analyse=0x3:0x131 / me=umh / subme=11 / psy=1 / psy_rd=1.00:0.05 / mixed_ref=1 / me_range=48 / chroma_me=1 / trellis=2 / 8x8dct=1 / cqm=0 / deadzone=21,11 / fast_pskip=0 / chroma_qp_offset=-3 / threads=9 / lookahead_threads=2 / sliced_threads=0 / nr=0 / decimate=0 / interlaced=0 / bluray_compat=0 / constrained_intra=0 / bframes=13 / b_pyramid=2 / b_adapt=2 / b_bias=0 / direct=3 / weightb=1 / open_gop=0 / weightp=2 / keyint=240 / keyint_min=23 / scenecut=40 / intra_refresh=0 / rc_lookahead=100 / rc=2pass / mbtree=0 / bitrate=1247 / ratetol=1.0 / qcomp=0.70 / qpmin=0 / qpmax=69 / qpstep=4 / cplxblur=20.0 / qblur=0.5 / vbv_maxrate=50000 / vbv_bufsize=50000 / nal_hrd=none / filler=0 / ip_ratio=1.35 / pb_ratio=1.25 / aq=2:0.80
Язык : English

Аудио
Идентификатор : 2
Формат : AC-3
Формат/Информация : Audio Coding 3
Расширение режима : CM (complete main)
Режим смешивания : Header stripping
Идентификатор кодека : A_AC3
Продолжительность : 2 ч. 3 м.
Вид битрейта : Постоянный
Битрейт : 384 Кбит/сек
Каналы : 6 каналов
Расположение каналов : Front: L C R, Side: L R, LFE
Частота : 48,0 КГц
Битовая глубина : 16 бит
Метод сжатия : С потерями
Размер потока : 339 Мбайт (24%)
Заголовок : Dub | DD 5.1 @ 384 kbps - iTunes
Язык : Russian

Текст #1
Идентификатор : 3
Формат : UTF-8
Идентификатор кодека : S_TEXT/UTF8
Идентификатор кодека/Информация : UTF-8 Plain Text
Заголовок : Forced
Язык : Russian

Текст #2
Идентификатор : 4
Формат : UTF-8
Идентификатор кодека : S_TEXT/UTF8
Идентификатор кодека/Информация : UTF-8 Plain Text
Заголовок : iTunes
Язык : Russian

Меню
00:00:00.000 : :00:00:00.000
00:06:24.467 : :00:06:24.467
00:12:54.774 : :00:12:54.774
00:18:32.987 : :00:18:32.987
00:23:45.591 : :00:23:45.591
00:29:39.653 : :00:29:39.653
00:35:29.835 : :00:35:29.836
00:39:30.535 : :00:39:30.535
00:42:42.435 : :00:42:42.435
00:48:34.036 : :00:48:34.036
00:52:26.935 : :00:52:26.935
00:57:30.197 : :00:57:30.197
01:01:52.542 : :01:01:52.542
01:07:35.551 : :01:07:35.551
01:12:13.496 : :01:12:13.496
01:17:50.791 : :01:17:50.791
01:21:17.122 : :01:21:17.122
01:26:05.911 : :01:26:05.911
01:32:48.480 : :01:32:48.480
01:37:18.750 : :01:37:18.750
01:43:24.115 : :01:43:24.115
01:46:06.610 : :01:46:06.610
01:50:31.667 : :01:50:31.667
01:58:34.858 : :01:58:34.858












   Похожие торренты   Торрент   Размер 
В этой теме нет новых непрочитанных сообщений. Форма воды / The Shape of Water (Гильермо дель Торо) [2017, фэнтези, драма, BDRip] AVO

7 | 0

2.06 ГБ

В этой теме нет новых непрочитанных сообщений. Форма воды / The Shape of Water (Гильермо дель Торо) [2017, фэнтези, драма, BDRip-AVC] DVO

13 | 6

2.13 ГБ

В этой теме нет новых непрочитанных сообщений. Форма воды / The Shape of Water (Гильермо дель Торо) [2017, фэнтези, драма, BDRip-AVC] DUB

48 | 6

2.98 ГБ

В этой теме нет новых непрочитанных сообщений. Форма воды / The Shape of Water (Гильермо дель Торо) [2017, фэнтези, драма, BDRip] DUB

292 | 7

2.13 ГБ

В этой теме нет новых непрочитанных сообщений. Форма воды / The Shape of Water (Гильермо дель Торо) [2017, фэнтези, драма, BDRip] DUB

616 | 19

1.46 ГБ

В этой теме нет новых непрочитанных сообщений. Форма воды / The Shape of Water (Гильермо дель Торо) [2017, фэнтези, драма, BDRip] DUB / Фантастика

101 | 8

1.46 ГБ

В этой теме нет новых непрочитанных сообщений. Форма воды / The Shape of Water (Гильермо дель Торо) [2017, фэнтези, драма, BDRip-AVC] DUB / Фантастика

46 | 2

1.46 ГБ




Вы не можете начинать темы
Вы не можете отвечать на сообщения
Вы не можете редактировать свои сообщения
Вы не можете удалять свои сообщения
Вы не можете добавлять вложения

Перейти:  
 Вход
ppkBB3cker v.2 © 2008-2014 @ PPK
[ Time : 2.738s | 16 Queries | GZIP : Off ]

cron