img image001 image001 image001 image001 image001 image001 image001 image001 image001 image001 image001 image001 image001 image001 image001 image001

Planets Sun Sun Sun
Статистика раздачи
Автор: Снежана | Размер: 1.41 ГБ | Добавлен: 09 мар 2018
Раздают: 48    Качают: 0
Скачать торрент
Скачать торрент
Описание торрента

СообщениеДобавлено: 09 мар 2018 

Чудо / Wonder


Перевод: Профессиональный (полное дублирование) iTunes
Субтитры: Русские (студия Focs)
Формат: BDRip-AVC, MKV, H.264, AC3
Страна: США
Режиссер: Стивен Чбоски
Жанр: Драма, семейный
Продолжительность: 01:53:10
Год выпуска: 2017
В ролях: Джейкоб Тремблей, Оуэн Уилсон, Изабела Видович, Джулия Робертс, Марк Доцлав, Рукия Бернард, Дженнифер Марч, Мэнди Пэтинкин, Ноа Джуп, Брайс Гейзар
Описание: С одной стороны мальчик Август Пулман такой же как и другие мальчишки его возраста — любит ходить на дни рождения к друзьям, играть в компьютерные игры, фанатеет от «Звездных войн», играет со своей собакой, ссорится и мирится со старшей сестрой. А с другой — он совсем не такой как другие мальчишки его возраста. Во-первых, Август никогда не ходил в обычную школу — с первого класса с ним дома занималась мама. Во-вторых, Август перенес 27 операций. Из-за очень редкой, но иногда встречающейся генетической ошибки у Августа нет лица. И вот такой мальчик должен пойти в школу. В первый раз. К обычным детям.



Видео: 960x400p (1.40:1), 23,976 fps, AVC MPEG-4 (x264), , ~ 1 399 kb/s, 0.152 bit/pixel
Аудио: 48 kHz, AC3 Dolby Digital, 3/2 (L,C,R,l,r) + LFE ch, ~ 384 kbps avg





Общее
Уникальный идентификатор : 225874718268421117662994733869641126284 (0xA9EDE36B842B217184FB07F0E2BA518C)
Полное имя : E:\Закачка-2\Chudo.2017.RUS.BDRip.x264.-HELLYWOOD.mkv
Формат : Matroska
Версия формата : Version 4 / Version 2
Размер файла : 1,41 Гбайт
Продолжительность : 1 ч. 53 м.
Общий поток : 1781 Кбит/сек
Название фильма : Wonder (2017)
Дата кодирования : UTC 2018-03-09 06:44:15
Программа кодирования : mkvmerge v5.9.0 ('On The Loose') built on Dec 15 2012 16:39:58
Библиотека кодирования : libebml v1.3.0 + libmatroska v1.4.0

Видео
Идентификатор : 1
Формат : AVC
Формат/Информация : Advanced Video Codec
Профиль формата :
Параметр CABAC формата : Да
Параметр ReFrames формата : 10 кадров
Режим смешивания : Header stripping
Идентификатор кодека : V_MPEG4/ISO/AVC
Продолжительность : 1 ч. 53 м.
Битрейт : 1399 Кбит/сек
Ширина : 960 пикселей
Высота : 400 пикселей
Соотношение сторон : 2,40:1
Режим частоты кадров : Постоянный
Частота кадров : 23,976 (24000/1001) кадра/сек
Цветовое пространство : YUV
Субдискретизация насыщенности : 4:2:0
Битовая глубина : 8 бит
Тип развёртки : Прогрессивная
Бит/(Пиксели*Кадры) : 0.152
Размер потока : 1,08 Гбайт (76%)
Заголовок : potroks
Библиотека кодирования : x264 core 155 r2901M 7d0ff22
Настройки программы : cabac=1 / ref=10 / deblock=1:-1:-1 / analyse=0x3:0x131 / me=umh / subme=11 / psy=1 / psy_rd=1.00:0.05 / mixed_ref=1 / me_range=48 / chroma_me=1 / trellis=2 / 8x8dct=1 / cqm=0 / deadzone=21,11 / fast_pskip=0 / chroma_qp_offset=-3 / threads=9 / lookahead_threads=2 / sliced_threads=0 / nr=0 / decimate=0 / interlaced=0 / bluray_compat=0 / constrained_intra=0 / bframes=12 / b_pyramid=2 / b_adapt=2 / b_bias=0 / direct=3 / weightb=1 / open_gop=0 / weightp=2 / keyint=240 / keyint_min=23 / scenecut=40 / intra_refresh=0 / rc_lookahead=100 / rc=2pass / mbtree=0 / bitrate=1399 / ratetol=1.0 / qcomp=0.70 / qpmin=0 / qpmax=69 / qpstep=4 / cplxblur=20.0 / qblur=0.5 / vbv_maxrate=50000 / vbv_bufsize=50000 / nal_hrd=none / filler=0 / ip_ratio=1.40 / pb_ratio=1.30 / aq=2:0.80
Язык : English
Default : Да
Forced : Нет

Аудио
Идентификатор : 2
Формат : AC-3
Формат/Информация : Audio Coding 3
Расширение режима : CM (complete main)
Параметр Endianness формата : Big
Режим смешивания : Header stripping
Идентификатор кодека : A_AC3
Продолжительность : 1 ч. 53 м.
Вид битрейта : Постоянный
Битрейт : 384 Кбит/сек
Каналы : 6 каналов
Расположение каналов : Front: L C R, Side: L R, LFE
Частота : 48,0 КГц
Частота кадров : 31,250 кадров/сек (1536 spf)
Метод сжатия : С потерями
Размер потока : 311 Мбайт (22%)
Заголовок : Dub | DD 5.1 @ 384 kbps - iTunes
Язык : Russian
Default : Да
Forced : Да

Текст
Идентификатор : 3
Формат : UTF-8
Идентификатор кодека : S_TEXT/UTF8
Идентификатор кодека/Информация : UTF-8 Plain Text
Заголовок : Focs studios
Язык : Russian
Default : Нет
Forced : Нет

Меню
00:00:00.000 : :00:00:00.000
00:06:04.489 : :00:06:04.489
00:12:18.446 : :00:12:18.446
00:19:23.496 : :00:19:23.496
00:26:23.165 : :00:26:23.165
00:33:06.234 : :00:33:06.234
00:38:54.666 : :00:38:54.666
00:47:19.378 : :00:47:19.378
00:51:42.891 : :00:51:42.891
00:59:36.865 : :00:59:36.865
01:06:05.336 : :01:06:05.336
01:14:59.411 : :01:14:59.411
01:23:18.034 : :01:23:18.034
01:30:36.097 : :01:30:36.097
01:33:19.510 : :01:33:19.510
01:40:43.996 : :01:40:43.996





   Похожие торренты   Торрент   Размер 
В этой теме нет новых непрочитанных сообщений. Чудо / Wonder ( Стивен Чбоски) [2017, Драма, семейный, BDRip-AVC] DUB

38 | 6

2.11 ГБ

В этой теме нет новых непрочитанных сообщений. Чудо / Wonder (Стивен Чбоски) [2017, драма, семейный, BDRip] DUB / Детское

344 | 9

1.41 ГБ

В этой теме нет новых непрочитанных сообщений. Чудо / Wonder (Стивен Чбоски) [2017, драма, семейный, BDRip] DUB / Детское

52 | 6

746.91 МБ

В этой теме нет новых непрочитанных сообщений. Чудо / Wonder (Стивен Чбоски) [2017, драма, семейный, HDRip] DUB

56 | 0

1.37 ГБ

В этой теме нет новых непрочитанных сообщений. Секретное досье / The Post (Стивен Спилберг) [2017, триллер, драма, биография, история, BDRip] DUB

22 | 5

746.62 МБ

В этой теме нет новых непрочитанных сообщений. Секретное досье / The Post (Стивен Спилберг) [2017, триллер, драма, биография, история, BDRip] DUB

44 | 5

1.41 ГБ

В этой теме нет новых непрочитанных сообщений. Секретное досье / The Post (Стивен Спилберг) [2017, триллер, драма, биография, история, BDRip-AVC] DUB

80 | 6

1.4 ГБ




Вы не можете начинать темы
Вы не можете отвечать на сообщения
Вы не можете редактировать свои сообщения
Вы не можете удалять свои сообщения
Вы не можете добавлять вложения

Перейти:  
 Вход
ppkBB3cker v.2 © 2008-2014 @ PPK
[ Time : 0.024s | 16 Queries | GZIP : Off ]

cron