img image001 image001 image001 image001 image001 image001 image001 image001 image001 image001 image001 image001 image001 image001 image001 image001

Planets Sun Sun Sun
Статистика раздачи
Автор: Снежана | Размер: 2.31 ГБ | Добавлен: 17 мар 2018
Раздают: 3    Качают: 0
Скачать торрент
Скачать торрент
Описание торрента

СообщениеДобавлено: 17 мар 2018 

Взлом / Keep Watching


Перевод: Любительский (многоголосый закадровый) Лицензия BD EUR
Cубтитры: Русские, Английские
Формат: BDRip-AVC, MKV, H264, AC3
Страна: США
Режиссер: Шон Картер
Жанр: ужасы, триллер
Продолжительность: 01:29:17
Год выпуска: 2017
В ролях: Белла Торн, Йоан Гриффит, Чендлер Риггз, Натали Мартинес, Мэттью Уиллиг, Ли Уоннелл, Джаред Абрахамсон, Кристофер Джеймс Бэйкер, Эйприл МакКалло, Карлос Ареллано

Описание: Семья оказалась заключенной в собственном доме злоумышленниками, которые играют не на жизнь, а на смерть. Чем глубже ночь, тем яснее становятся правила игры.



Видео: 1024x576 (16:9), 23,976 fps, AVC MPEG-4 (x264), , ~ 2 799 kbps avg, 0.198 bit/pixel

Аудио #1: Русский: 48 kHz, AC3 Dolby Digital, 3/2 (L,C,R,l,r) + LFE ch, ~ 448 kbps avg [Профессиональный (многоголосый закадровый), Лицензия]
Аудио #2: Английский: 48 kHz, AC3 Dolby Digital, 3/2 (L,C,R,l,r) + LFE ch, ~ 448 kbps avg [Оригинал]





Общее
Уникальный идентификатор : 241119333043809409151414752632559512757 (0xB565E4F54CB3C105AF3A9302CFFA2CB5)
Полное имя : E:OlLanDGroupKeep.Watching.2017.BDRip(AVC).OlLanDGroup.mkv
Формат : Matroska
Версия формата : Version 2
Размер файла : 2,31 Гбайт
Продолжительность : 1 ч. 29 м.
Общий поток : 3702 Кбит/сек
Название фильма : Keep.Watching.2017 #TorpedoUK#
Дата кодирования : UTC 2018-03-17 10:04:04
Программа кодирования : mkvmerge v7.8.0 ('River Man') 32bit built on Apr 3 2015 12:11:22
Библиотека кодирования : libebml v1.3.1 + libmatroska v1.4.2

Видео
Идентификатор : 1
Формат : AVC
Формат/Информация : Advanced Video Codec
Профиль формата :
Параметр CABAC формата : Да
Параметр ReFrames формата : 10 кадров
Идентификатор кодека : V_MPEG4/ISO/AVC
Продолжительность : 1 ч. 29 м.
Битрейт : 2799 Кбит/сек
Ширина : 1024 пикселя
Высота : 576 пикселей
Соотношение сторон : 16:9
Режим частоты кадров : Постоянный
Частота кадров : 23,976 (24000/1001) кадра/сек
Цветовое пространство : YUV
Субдискретизация насыщенности : 4:2:0
Битовая глубина : 8 бит
Тип развёртки : Прогрессивная
Бит/(Пиксели*Кадры) : 0.198
Размер потока : 1,70 Гбайт (74%)
Библиотека кодирования : x264 core 146 r2538 121396c
Настройки программы : cabac=1 / ref=10 / deblock=1:-2:-3 / analyse=0x3:0x133 / me=umh / subme=11 / psy=1 / psy_rd=0.95:0.08 / mixed_ref=1 / me_range=48 / chroma_me=1 / trellis=2 / 8x8dct=1 / cqm=0 / deadzone=21,11 / fast_pskip=1 / chroma_qp_offset=-3 / threads=6 / lookahead_threads=1 / sliced_threads=0 / nr=0 / decimate=1 / interlaced=0 / bluray_compat=0 / constrained_intra=0 / bframes=10 / b_pyramid=2 / b_adapt=2 / b_bias=0 / direct=3 / weightb=1 / open_gop=0 / weightp=2 / keyint=240 / keyint_min=23 / scenecut=40 / intra_refresh=0 / rc_lookahead=40 / rc=2pass / mbtree=0 / bitrate=2799 / ratetol=1.0 / qcomp=0.60 / qpmin=0 / qpmax=69 / qpstep=4 / cplxblur=20.0 / qblur=0.5 / vbv_maxrate=50000 / vbv_bufsize=62500 / nal_hrd=none / filler=0 / ip_ratio=1.40 / pb_ratio=1.30 / aq=1:1.00
Язык : English
Default : Да
Forced : Нет

Аудио #1
Идентификатор : 2
Формат : AC-3
Формат/Информация : Audio Coding 3
Расширение режима : CM (complete main)
Параметр Endianness формата : Big
Идентификатор кодека : A_AC3
Продолжительность : 1 ч. 29 м.
Вид битрейта : Постоянный
Битрейт : 448 Кбит/сек
Каналы : 6 каналов
Расположение каналов : Front: L C R, Side: L R, LFE
Частота : 48,0 КГц
Частота кадров : 31,250 кадров/сек (1536 spf)
Битовая глубина : 16 бит
Метод сжатия : С потерями
Размер потока : 286 Мбайт (12%)
Заголовок : Lic
Язык : Russian
Default : Да
Forced : Нет

Аудио #2
Идентификатор : 3
Формат : AC-3
Формат/Информация : Audio Coding 3
Расширение режима : CM (complete main)
Параметр Endianness формата : Big
Идентификатор кодека : A_AC3
Продолжительность : 1 ч. 29 м.
Вид битрейта : Постоянный
Битрейт : 448 Кбит/сек
Каналы : 6 каналов
Расположение каналов : Front: L C R, Side: L R, LFE
Частота : 48,0 КГц
Частота кадров : 31,250 кадров/сек (1536 spf)
Битовая глубина : 16 бит
Метод сжатия : С потерями
Размер потока : 286 Мбайт (12%)
Заголовок : Original
Язык : English
Default : Нет
Forced : Нет

Текст #1
Идентификатор : 4
Формат : UTF-8
Идентификатор кодека : S_TEXT/UTF8
Идентификатор кодека/Информация : UTF-8 Plain Text
Заголовок : Full
Язык : Russian
Default : Нет
Forced : Нет

Текст #2
Идентификатор : 5
Формат : UTF-8
Идентификатор кодека : S_TEXT/UTF8
Идентификатор кодека/Информация : UTF-8 Plain Text
Заголовок : Full
Язык : English
Default : Нет
Forced : Нет

Текст #3
Идентификатор : 6
Формат : UTF-8
Идентификатор кодека : S_TEXT/UTF8
Идентификатор кодека/Информация : UTF-8 Plain Text
Заголовок : SDH
Язык : English
Default : Нет
Forced : Нет

Меню
00:00:00.000 : en:00:00:00.000
00:05:27.702 : en:00:05:27.702
00:10:28.086 : en:00:10:28.086
00:17:34.303 : en:00:17:34.303
00:21:46.722 : en:00:21:46.722
00:26:34.718 : en:00:26:34.718
00:33:21.625 : en:00:33:21.625
00:39:30.159 : en:00:39:30.159
00:46:34.000 : en:00:46:34.000
00:51:11.193 : en:00:51:11.193
00:56:36.018 : en:00:56:36.018
01:00:36.883 : en:01:00:36.883
01:04:44.172 : en:01:04:44.172
01:10:19.757 : en:01:10:19.757
01:17:28.102 : en:01:17:28.102
01:21:54.159 : en:01:21:54.159





   Похожие торренты   Торрент   Размер 
В этой теме нет новых непрочитанных сообщений. Взлом / Keep Watching (Шон Картер) [2017, ужасы, триллер, BDRip] MVO

26 | 4

1.46 ГБ

В этой теме нет новых непрочитанных сообщений. Кто-то наблюдает за мной! / Someone's Watching Me! (Джон Карпентер) [1978, триллер, детектив, BDRip] DVO

1 | 0

1.45 ГБ

В этой теме нет новых непрочитанных сообщений. Прочь / Get Out (Джордан Пил) [2017, ужасы, триллер, BDRip-AVC] DUB+MVO

30 | 0

2.18 ГБ

В этой теме нет новых непрочитанных сообщений. Прочь / Get Out (Джордан Пил) [2017, ужасы, триллер, детектив, BDRip] DUB / Мистика

64 | 2

1.46 ГБ

В этой теме нет новых непрочитанных сообщений. Прочь / Get Out (Джордан Пил) [2017, ужасы, триллер, детектив, BDRip] DUB + MVO / Мистика

25 | 3

2.18 ГБ

В этой теме нет новых непрочитанных сообщений. Невеста (Святослав Подгаевский) [2017, ужасы, триллер, BDRip] / Мистика

7 | 0

745.17 МБ

В этой теме нет новых непрочитанных сообщений. Невеста (Святослав Подгаевский) [2017, ужасы, триллер, BDRip-AVC] / Мистика

12 | 1

1.28 ГБ




Вы не можете начинать темы
Вы не можете отвечать на сообщения
Вы не можете редактировать свои сообщения
Вы не можете удалять свои сообщения
Вы не можете добавлять вложения

Перейти:  
 Вход
ppkBB3cker v.2 © 2008-2014 @ PPK
[ Time : 0.046s | 17 Queries | GZIP : Off ]

cron