img image001 image001 image001 image001 image001 image001 image001 image001 image001 image001 image001 image001 image001 image001 image001

Planets Sun Sun Sun
Статистика раздачи
Автор: Снежана | Размер: 1.46 ГБ | Добавлен: 21 мар 2018
Раздают: 292    Качают: 7
Скачать торрент
Скачать торрент
Описание торрента

СообщениеДобавлено: 21 мар 2018 

Кто наш папа, чувак? / Father Figures


Перевод: Профессиональный (полное дублирование) iTunes
Cубтитры: отсутствуют
Формат: WEB-DLRip-AVC, MKV, H264, AC3
Страна: США
Режиссер: Лоуренс Шер
Жанр: комедия
Продолжительность: 01:52:48
Год выпуска: 2017
В ролях: Оуэн Уилсон, Кристофер Уокен, Дж.К. Симмонс, Эд Хелмс, Гленн Клоуз, Винг Рэймс, Кэтрин Аселтон, Терри Брэдшоу, Райан Картрайт, Джун Скуиб
Описание: Питер и Кайл Рейнольдсы — два брата, которых эксцентричная мать вырастила в полной уверенности, что их отец умер, когда они были маленькими. Но после того, как они выясняют, что это неправда, они отправляются на поиски своего настоящего отца, в ходе которых узнают о своей матери больше, чем, вероятно, когда-либо хотели знать.



Видео: 1024x424 (2.40:1), 23,976 fps, AVC MPEG-4 (x264), , ~ 1 276 kbps avg, 0.123 bit/pixel

Аудио #1: Русский: 48 kHz, AC3 Dolby Digital, 6 ch, ~ 384 kbps avg [Профессиональный (полное дублирование), iTunes]
Аудио #2: Английский: 48 kHz, AC3 Dolby Digital, 2/0 (L,R) ch, ~192 kbps avg [Оригинал]





Общее
Уникальный идентификатор : 207433253917060263735885161991137754159 (0x9C0E310753C5A2E4BBB9EA7174ED7C2F)
Полное имя : E:OlLanDGroupFather.Figures.2017.WEB-DLRip(AVC).OlLanDGroup.mkv
Формат : Matroska
Версия формата : Version 2
Размер файла : 1,46 Гбайт
Продолжительность : 1 ч. 52 м.
Общий поток : 1854 Кбит/сек
Название фильма : Father.Figures.2017 #TorpedoUK#
Дата кодирования : UTC 2018-03-20 19:36:10
Программа кодирования : mkvmerge v7.8.0 ('River Man') 32bit built on Apr 3 2015 12:11:22
Библиотека кодирования : libebml v1.3.1 + libmatroska v1.4.2

Видео
Идентификатор : 1
Формат : AVC
Формат/Информация : Advanced Video Codec
Профиль формата :
Параметр CABAC формата : Да
Параметр ReFrames формата : 10 кадров
Идентификатор кодека : V_MPEG4/ISO/AVC
Продолжительность : 1 ч. 52 м.
Битрейт : 1276 Кбит/сек
Ширина : 1024 пикселя
Высота : 424 пикселя
Соотношение сторон : 2,40:1
Режим частоты кадров : Постоянный
Частота кадров : 23,976 (24000/1001) кадра/сек
Цветовое пространство : YUV
Субдискретизация насыщенности : 4:2:0
Битовая глубина : 8 бит
Тип развёртки : Прогрессивная
Бит/(Пиксели*Кадры) : 0.123
Размер потока : 1001 Мбайт (67%)
Библиотека кодирования : x264 core 146 r2538 121396c
Настройки программы : cabac=1 / ref=10 / deblock=1:-3:-3 / analyse=0x3:0x133 / me=umh / subme=11 / psy=1 / psy_rd=1.00:0.05 / mixed_ref=1 / me_range=48 / chroma_me=1 / trellis=2 / 8x8dct=1 / cqm=0 / deadzone=21,11 / fast_pskip=1 / chroma_qp_offset=-3 / threads=6 / lookahead_threads=1 / sliced_threads=0 / nr=0 / decimate=1 / interlaced=0 / bluray_compat=0 / constrained_intra=0 / bframes=10 / b_pyramid=2 / b_adapt=2 / b_bias=0 / direct=3 / weightb=1 / open_gop=0 / weightp=2 / keyint=240 / keyint_min=23 / scenecut=40 / intra_refresh=0 / rc_lookahead=40 / rc=2pass / mbtree=0 / bitrate=1276 / ratetol=1.0 / qcomp=0.60 / qpmin=0 / qpmax=69 / qpstep=4 / cplxblur=20.0 / qblur=0.5 / vbv_maxrate=50000 / vbv_bufsize=62500 / nal_hrd=none / filler=0 / ip_ratio=1.40 / pb_ratio=1.30 / aq=1:1.00
Default : Да
Forced : Нет

Аудио #1
Идентификатор : 2
Формат : AC-3
Формат/Информация : Audio Coding 3
Расширение режима : CM (complete main)
Параметр Endianness формата : Big
Идентификатор кодека : A_AC3
Продолжительность : 1 ч. 52 м.
Вид битрейта : Постоянный
Битрейт : 384 Кбит/сек
Каналы : 6 каналов
Расположение каналов : Front: L C R, Side: L R, LFE
Частота : 48,0 КГц
Частота кадров : 31,250 кадров/сек (1536 spf)
Битовая глубина : 16 бит
Метод сжатия : С потерями
Размер потока : 310 Мбайт (21%)
Заголовок : iTunes
Язык : Russian
Default : Да
Forced : Нет

Аудио #2
Идентификатор : 3
Формат : AC-3
Формат/Информация : Audio Coding 3
Расширение режима : CM (complete main)
Параметр Endianness формата : Big
Идентификатор кодека : A_AC3
Продолжительность : 1 ч. 52 м.
Вид битрейта : Постоянный
Битрейт : 192 Кбит/сек
Каналы : 2 канала
Расположение каналов : Front: L R
Частота : 48,0 КГц
Частота кадров : 31,250 кадров/сек (1536 spf)
Битовая глубина : 16 бит
Метод сжатия : С потерями
Размер потока : 155 Мбайт (10%)
Заголовок : Original
Язык : English
Default : Нет
Forced : Нет

Меню
00:00:00.000 : en:1
00:08:48.000 : en:2
00:20:57.000 : en:3
00:30:18.000 : en:4
00:39:47.000 : en:5
00:50:51.000 : en:6
00:58:21.000 : en:7
01:10:58.000 : en:8
01:19:45.000 : en:9
01:29:48.000 : en:10
01:41:23.000 : en:11
01:44:32.000 : en:12





   Похожие торренты   Торрент   Размер 
В этой теме нет новых непрочитанных сообщений. Кто наш папа, чувак? / Father Figures (Лоуренс Шер) [2017, комедия, WEB-DLRip] DUB

1092 | 16

1.46 ГБ

В этой теме нет новых непрочитанных сообщений. Кто наш папа, чувак? / Father Figures (Лоуренс Шер) [2017, Комедия, WEBDLRip] DUB

114 | 4

2.19 ГБ

В этой теме нет новых непрочитанных сообщений. Здравствуй, папа, Новый год! 2 / Daddy's Home 2 (Шон Андерс) [2017, комедия, BDRip] DUB

583 | 10

1.46 ГБ

В этой теме нет новых непрочитанных сообщений. Мама и папа / Mom and Dad (Брайан Тейлор) [2017, ужасы, триллер, комедия, HDTVRip] AVO

0 | 0

1.46 ГБ

В этой теме нет новых непрочитанных сообщений. Здравствуй, папа, Новый год! 2 / Daddy's Home 2 (Шон Андерс) [2017, комедия, BDRip-AVC] DUB

40 | 0

1.46 ГБ

В этой теме нет новых непрочитанных сообщений. Здравствуй, папа, Новый год! 2 / Daddy's Home 2 (Шон Андерс) [2017, комедия, BDRip-AVC] DUB

121 | 3

2.18 ГБ

В этой теме нет новых непрочитанных сообщений. Здравствуй, папа, Новый год! 2 / Daddy's Home 2 (Шон Андерс) [2017, комедия, BDRip] DUB

47 | 6

746.86 МБ




Вы не можете начинать темы
Вы не можете отвечать на сообщения
Вы не можете редактировать свои сообщения
Вы не можете удалять свои сообщения
Вы не можете добавлять вложения

Перейти:  
 Вход
ppkBB3cker v.2 © 2008-2014 @ PPK
[ Time : 0.022s | 16 Queries | GZIP : Off ]

cron