img image001 image001 image001 image001 image001 image001 image001 image001 image001 image001 image001 image001 image001 image001 image001 image001

Planets Sun Sun Sun
Статистика раздачи
Автор: Снежана | Размер: 1.46 ГБ | Добавлен: 21 мар 2018
Раздают: 0    Качают: 2
Скачать торрент
Скачать торрент
Описание торрента

СообщениеДобавлено: 21 мар 2018 

Атомная школа 3 / Школа ядерного кайфа 3 / Атомная заварушка 3 / Class of Nuke 'Em High Part 3: The Good, the Bad and the Subhumanoid


Перевод: Авторский (одноголосый закадровый) Антон Алексеев, субтитры: отсутствуют
Формат: DVDRip, AVI, XviD, AC3
Страна: США
Режиссер: Эрик Лузил
Жанр: фантастика, боевик, комедия
Продолжительность: 01:42:07
Год выпуска: 1994

В ролях: Брик Бронски, Лиза Стар, Джон Таллман, Лиза Гайе, Альберт Беар, Элизабет Янг, Бионика, Валери МакКоннелл, Кэтлин Кэйн

Описание: Картина начинается там, где заканчивается предыдущий фильм. Гигантский мутант Троми уничтожает атомную станцию Тромавилля, но Роджеру Смиту удается спасти жителей городка. Тем временем рождаются два сына-близнеца Роджера-Адлай и Дик. Но Дика похищают прямо из роддома у ничего не подозревающих отца и матери. Дика воспитывают и растят местные головорезы, прививая ему ненависть к людям. В это время Роджер воспитывает Адлая в духе вежливости и доброты к окружающим. Вскоре злой доктор Слаг решает использовать Дика, чтобы подставить Адлая и навлечь на него гнев жителей Тромавилля. Злодей хочет превратить город в свалку токсичных отходов. Адлаю предстоит разгадать дьявольский замысел доктора Слага и спасти Тромавилль от разрушения…


Видео: 640x480 (1.33:1), 25 fps, XviD build 65 ~1644 kbps avg, 0.21 bit/pixel
Аудио: 48 kHz, AC3 Dolby Digital, 2/0 (L,R) ch, ~192 kbps русский
Аудио: 48 kHz, AC3 Dolby Digital, 2/0 (L,R) ch, ~192 kbps оригинал

General
Complete name : C:\Users\ALEX\Downloads\Фильмы\Class of Nuke 'Em High Part 3.The Good,the Bad and the Subhumanoid.1994.RUS.ENG.DVDRip.XviD.AC3.avi
Format : AVI
Format/Info : Audio Video Interleave
File size : 1.46 GiB
Duration : 1h 42mn
Overall bit rate : 2 044 Kbps
Writing application : VirtualDubMod 1.5.10.2 (build 2542/release)
Writing library : VirtualDubMod build 2542/release

Video
ID : 0
Format : MPEG-4 Visual
Format profile : Advanced Simple@L5
Format settings, BVOP : 1
Format settings, QPel : No
Format settings, GMC : No warppoints
Format settings, Matrix : Custom
Codec ID : XVID
Codec ID/Hint : XviD
Duration : 1h 42mn
Bit rate : 1 645 Kbps
Width : 640 pixels
Height : 480 pixels
Display aspect ratio : 4:3
Frame rate : 25.000 fps
Color space : YUV
Chroma subsampling : 4:2:0
Bit depth : 8 bits
Scan type : Progressive
Compression mode : Lossy
Bits/(Pixel*Frame) : 0.214
Stream size : 1.17 GiB (81%)
Writing library : XviD 65

Audio #1
ID : 1
Format : AC-3
Format/Info : Audio Coding 3
Mode extension : CM (complete main)
Format settings, Endianness : Big
Codec ID : 2000
Duration : 1h 42mn
Bit rate mode : Constant
Bit rate : 192 Kbps
Channel(s) : 2 channels
Channel positions : Front: L R
Sampling rate : 48.0 KHz
Bit depth : 16 bits
Compression mode : Lossy
Stream size : 140 MiB (9%)
Alignment : Split accross interleaves
Interleave, duration : 40 ms (1.00 video frame)
Interleave, preload duration : 500 ms

Audio #2
ID : 2
Format : AC-3
Format/Info : Audio Coding 3
Mode extension : CM (complete main)
Format settings, Endianness : Big
Codec ID : 2000
Duration : 1h 42mn
Bit rate mode : Constant
Bit rate : 192 Kbps
Channel(s) : 2 channels
Channel positions : Front: L R
Sampling rate : 48.0 KHz
Bit depth : 16 bits
Compression mode : Lossy
Stream size : 140 MiB (9%)
Alignment : Split accross interleaves
Interleave, duration : 40 ms (1.00 video frame)
Interleave, preload duration : 500 ms









   Похожие торренты   Торрент   Размер 
В этой теме нет новых непрочитанных сообщений. Атомная школа 3 / Class of Nuke 'Em High Part 3: The Good, the Bad and the Subhumanoid (1995) BDRemux 1080р | A

5 | 3

16.88 ГБ

В этой теме нет новых непрочитанных сообщений. Атомная школа 2 / Class of Nuke 'Em High Part II: Subhumanoid Meltdown (1991) BDRip | L1

0 | 0

1.45 ГБ

В этой теме нет новых непрочитанных сообщений. Атомная школа 2 / Class of Nuke 'Em High Part II: Subhumanoid Meltdown (1991) BDRemux 1080р | L1

3 | 5

13.86 ГБ

В этой теме нет новых непрочитанных сообщений. Атомная школа / Class of Nuke 'Em High (1986) HDRip | L1

3 | 1

1.36 ГБ

В этой теме нет новых непрочитанных сообщений. Атомная школа / Class of Nuke 'Em High (1986) HDRip | L1

2 | 2

702.65 МБ

В этой теме нет новых непрочитанных сообщений. Атомная школа / Class of Nuke 'Em High (1986) BDRip от HQCLUB

38 | 5

1.45 ГБ

В этой теме нет новых непрочитанных сообщений. Атомная школа / Class of Nuke 'Em High (1986) BDRemux 1080р | L1

4 | 7

18.84 ГБ




Вы не можете начинать темы
Вы не можете отвечать на сообщения
Вы не можете редактировать свои сообщения
Вы не можете удалять свои сообщения
Вы не можете добавлять вложения

Перейти:  
 Вход
ppkBB3cker v.2 © 2008-2014 @ PPK
[ Time : 0.040s | 16 Queries | GZIP : Off ]

cron