img image001 image001 image001 image001 image001 image001 image001 image001 image001 image001 image001 image001 image001 image001 image001 image001

Planets Sun Sun Sun
Статистика раздачи
Автор: Снежана | Размер: 1.39 ГБ | Добавлен: 09 апр 2018
Раздают: 71    Качают: 6
Скачать торрент
Скачать торрент
Описание торрента

СообщениеДобавлено: 09 апр 2018 

Пассажир / The Commuter
Оценка релиза: 
Перевод: Любительский (многоголосый, закадровый) HDRezka, субтитры: русские, английские
Формат: HDRip-AVC, MKV, H.264, AC3
Страна: Великобритания, Франция, США
Режиссер: Жаума Кольет-Серра
Жанр: боевик, триллер, драма, криминал, детектив
Продолжительность: 01:44:55
Год выпуска: 2018

В ролях: Лиам Нисон, Вера Фармига, Патрик Уилсон, Джонатан Бэнкс, Сэм Нил, Элизабет МакГоверн, Киллиан Скотт, Шазад Латиф, Энди Найман, Клара Лаго

Описание: Еще вчера его день начинался с поездки на работу в одном и том же поезде, в компании уже давно знакомых лиц, но сегодня таинственная незнакомка предлагает ему поучаствовать в эксперименте. Одна остановка, чтобы принять решение, и единственный шанс из тысячи победить. Осторожно, игра начинается…



Видео: 1056x442 (2.40:1), 23.976 fps, AVC MPEG-4 (H.264), ~1472 kbps, 0.132 bit/pixel
Аудио #1: Русский: 48 kHz, AC3 Dolby Digital, 2/0 (L,R) ch, ~192 kbps [Любительский (многоголосый, закадровый)]
Аудио #2: Английский: 48 kHz, AC3 Dolby Digital, 2/0 (L,R) ch, ~192 kbps [Оригинал]


Format : Matroska
Format version : Version 4 / Version 2
File size : 1.39 GiB
Duration : 1 h 44 min
Overall bit rate : 1 894 kb/s
Movie name : Пассажир / The Commuter (2018) :: AFM ::
Encoded date : UTC 2018-04-08 11:45:51
Writing application : mkvmerge v8.3.0 ('Over the Horizon') 32bit
Writing library : libebml v1.3.1 + libmatroska v1.4.2
Cover : Yes
Attachments : cover.jpg
Video
ID : 1
Format : AVC
Format/Info : Advanced Video Codec
Format profile :
Format settings, CABAC : Yes
Format settings, ReFrames : 12 frames
Codec ID : V_MPEG4/ISO/AVC
Duration : 1 h 44 min
Bit rate : 1 472 kb/s
Width : 1 056 pixels
Height : 442 pixels
Display aspect ratio : 2.40:1
Frame rate mode : Constant
Frame rate : 23.976 (24000/1001) FPS
Color space : YUV
Chroma subsampling : 4:2:0
Bit depth : 8 bits
Scan type : Progressive
Bits/(Pixel*Frame) : 0.132
Stream size : 1.08 GiB (78%)
Title : HDRip by AFM
Writing library : x264 core 152 r2851+45 9658d1a 7mod [8-bit@all X86_64]
Encoding settings : cabac=1 / ref=12 / deblock=1:-2:-2 / analyse=0x3:0x133 / me=umh / subme=10 / psy=1 / fade_compensate=0.00 / psy_rd=1.00:0.00 / mixed_ref=1 / me_range=32 / chroma_me=0 / trellis=2 / 8x8dct=1 / cqm=0 / deadzone=21,11 / fast_pskip=0 / chroma_qp_offset=-2 / threads=6 / lookahead_threads=1 / sliced_threads=0 / nr=0 / decimate=1 / interlaced=0 / bluray_compat=0 / constrained_intra=0 / fgo=0 / bframes=12 / b_pyramid=2 / b_adapt=2 / b_bias=0 / direct=1 / weightb=1 / open_gop=0 / weightp=2 / keyint=240 / keyint_min=23 / scenecut=40 / intra_refresh=0 / rc_lookahead=90 / rc=crf / mbtree=0 / crf=18.7000 / qcomp=0.65 / qpmin=0:0:0 / qpmax=69:69:69 / qpstep=4 / vbv_maxrate=50000 / vbv_bufsize=62500 / crf_max=0.0 / nal_hrd=none / filler=0 / ip_ratio=1.35 / pb_ratio=1.25 / aq=4:0.80 / aq-sensitivity=10.00 / aq-factor=1.00:1.00:1.00 / aq2=0 / aq3=0
Language : English
Default : Yes
Forced : No
Audio #1
ID : 2
Format : AC-3
Format/Info : Audio Coding 3
Mode extension : CM (complete main)
Format settings, Endianness : Big
Codec ID : A_AC3
Duration : 1 h 44 min
Bit rate mode : Constant
Bit rate : 192 kb/s
Channel(s) : 2 channels
Channel positions : Front: L R
Sampling rate : 48.0 kHz
Frame rate : 31.250 FPS (1536 spf)
Compression mode : Lossy
Stream size : 144 MiB (10%)
Title : MVO [HDRezka] AC3 2.0 ~192 kbps
Language : Russian
Default : Yes
Forced : No
Audio #2
ID : 3
Format : AC-3
Format/Info : Audio Coding 3
Mode extension : CM (complete main)
Format settings, Endianness : Big
Codec ID : A_AC3
Duration : 1 h 44 min
Bit rate mode : Constant
Bit rate : 192 kb/s
Channel(s) : 2 channels
Channel positions : Front: L R
Sampling rate : 48.0 kHz
Frame rate : 31.250 FPS (1536 spf)
Compression mode : Lossy
Stream size : 144 MiB (10%)
Title : Original, AC3 2.0 ~192 kbps
Language : English
Default : No
Forced : No
Text #1
ID : 4
Format : UTF-8
Codec ID : S_TEXT/UTF8
Codec ID/Info : UTF-8 Plain Text
Language : Russian
Default : No
Forced : No
Text #2
ID : 5
Format : UTF-8
Codec ID : S_TEXT/UTF8
Codec ID/Info : UTF-8 Plain Text
Language : English
Default : No
Forced : No
Text #3
ID : 6
Format : UTF-8
Codec ID : S_TEXT/UTF8
Codec ID/Info : UTF-8 Plain Text
Title : SDH
Language : English
Default : No
Forced : No
Menu
00:00:00.000 : en:00:00:00.000
00:05:38.255 : en:00:05:38.255
00:12:23.493 : en:00:12:23.493
00:16:54.472 : en:00:16:54.472
00:25:36.118 : en:00:25:36.118
00:32:20.855 : en:00:32:20.855
00:41:37.954 : en:00:41:37.954
00:44:38.217 : en:00:44:38.217
00:52:38.989 : en:00:52:38.989
00:59:30.650 : en:00:59:30.650
01:04:50.845 : en:01:04:50.845
01:11:53.517 : en:01:11:53.517
01:20:23.318 : en:01:20:23.318
01:25:23.160 : en:01:25:23.160
01:30:45.648 : en:01:30:45.648
01:37:26.340 : en:01:37:26.340












   Похожие торренты   Торрент   Размер 
В этой теме нет новых непрочитанных сообщений. Пассажир / The Commuter (Жаума Кольет-Серра) [2018, боевик, триллер, драма, криминал, детектив, HDRip] MVO

15 | 0

1.46 ГБ

В этой теме нет новых непрочитанных сообщений. Пассажир / The Commuter (Жаума Кольет-Серра) [2018, боевик, триллер, драма, криминал, детектив, HDRip-AVC] MVO

42 | 6

2.01 ГБ

В этой теме нет новых непрочитанных сообщений. Пассажир / The Commuter (Жаума Кольет-Серра) [2018, боевик, триллер, драма, криминал, детектив, HDRip] DUB

73 | 0

1.37 ГБ

В этой теме нет новых непрочитанных сообщений. Пассажир / The Commuter (Жаума Кольет-Серра) [2018, боевик, триллер, драма, криминал, детектив, LowHDRip] DUB

96 | 12

746.55 МБ

В этой теме нет новых непрочитанных сообщений. Пассажир / The Commuter (Жаума Кольет-Серра) [2018, боевик, триллер, драма, криминал, детектив, LowHDRip] MVO

53 | 5

750.41 МБ

В этой теме нет новых непрочитанных сообщений. Пассажир / The Commuter (Жаума Кольет-Серра) [2018, боевик, триллер, драма, криминал, детектив, BDRip-AVC] DUB

75 | 7

1.41 ГБ

В этой теме нет новых непрочитанных сообщений. Пассажир / The Commuter (Жаума Кольет-Серра) [2018, боевик, триллер, драма, криминал, детектив, BDRip] DUB

11 | 12

1.41 ГБ




Вы не можете начинать темы
Вы не можете отвечать на сообщения
Вы не можете редактировать свои сообщения
Вы не можете удалять свои сообщения
Вы не можете добавлять вложения

Перейти:  
 Вход
ppkBB3cker v.2 © 2008-2014 @ PPK
[ Time : 0.034s | 17 Queries | GZIP : Off ]

cron