img image001 image001 image001 image001 image001 image001 image001 image001 image001 image001 image001 image001 image001 image001 image001 image001

Planets Sun Sun Sun
Статистика раздачи
Автор: Снежана | Размер: 1.41 ГБ | Добавлен: 19 апр 2018
Раздают: 164    Качают: 8
Скачать торрент
Скачать торрент
Описание торрента

СообщениеДобавлено: 19 апр 2018 

Пассажир / The Commuter


Перевод: Профессиональный (полное дублирование) iTunes
Субтитры: Русские, английские
Формат: BDRip-AVC , MKV, H.264, AC3
Страна: Великобритания, Франция, США
Режиссер: Жаума Кольет-Серра
Жанр: боевик, триллер, драма, криминал, детектив
Продолжительность: 01:44:55
Год выпуска: 2018
В ролях: Лиам Нисон, Вера Фармига, Патрик Уилсон, Джонатан Бэнкс, Сэм Нил, Элизабет МакГоверн, Киллиан Скотт, Шазад Латиф, Энди Найман, Клара Лаго

Описание: Еще вчера его день начинался с поездки на работу в одном и том же поезде, в компании уже давно знакомых лиц, но сегодня таинственная незнакомка предлагает ему поучаствовать в эксперименте. Одна остановка, чтобы принять решение, и единственный шанс из тысячи победить. Осторожно, игра начинается…



Видео: 976x408 (2.40:1), 23,976 fps, AVC MPEG-4 (x264), High@L4,1, ~ 1 542 kbps avg, 0.162 bit/pixel
Аудио: 48 kHz, AC3 Dolby Digital, 3/2 (L,C,R,l,r) + LFE ch, ~ 384 kbps avg





Общее
Уникальный идентификатор : 194452579442549069075459074703181621747 (0x924A345D773C04039634965340EE29F3)
Полное имя : E:\OlLanDGroup\The.Commuter.2018.BDRip(AVC).OlLanDGroup.mkv
Формат : Matroska
Версия формата : Version 2
Размер файла : 1,41 Гбайт
Продолжительность : 1 ч. 44 м.
Общий поток : 1928 Кбит/сек
Название фильма : The.Commuter.2018 #TorpedoUK#
Дата кодирования : UTC 2018-04-17 01:48:34
Программа кодирования : mkvmerge v7.8.0 ('River Man') 32bit built on Apr 3 2015 12:11:22
Библиотека кодирования : libebml v1.3.1 + libmatroska v1.4.2

Видео
Идентификатор : 1
Формат : AVC
Формат/Информация : Advanced Video Codec
Профиль формата :
Параметр CABAC формата : Да
Параметр ReFrames формата : 10 кадров
Идентификатор кодека : V_MPEG4/ISO/AVC
Продолжительность : 1 ч. 44 м.
Битрейт : 1542 Кбит/сек
Ширина : 976 пикселей
Высота : 408 пикселей
Соотношение сторон : 2,40:1
Режим частоты кадров : Постоянный
Частота кадров : 23,976 (24000/1001) кадра/сек
Цветовое пространство : YUV
Субдискретизация насыщенности : 4:2:0
Битовая глубина : 8 бит
Тип развёртки : Прогрессивная
Бит/(Пиксели*Кадры) : 0.162
Размер потока : 1,10 Гбайт (78%)
Библиотека кодирования : x264 core 146 r2538 121396c
Настройки программы : cabac=1 / ref=10 / deblock=1:-3:-3 / analyse=0x3:0x133 / me=umh / subme=11 / psy=1 / psy_rd=1.00:0.03 / mixed_ref=1 / me_range=48 / chroma_me=1 / trellis=2 / 8x8dct=1 / cqm=0 / deadzone=21,11 / fast_pskip=1 / chroma_qp_offset=-3 / threads=6 / lookahead_threads=1 / sliced_threads=0 / nr=0 / decimate=1 / interlaced=0 / bluray_compat=0 / constrained_intra=0 / bframes=10 / b_pyramid=2 / b_adapt=2 / b_bias=0 / direct=3 / weightb=1 / open_gop=0 / weightp=2 / keyint=240 / keyint_min=23 / scenecut=40 / intra_refresh=0 / rc_lookahead=40 / rc=2pass / mbtree=0 / bitrate=1542 / ratetol=1.0 / qcomp=0.60 / qpmin=0 / qpmax=69 / qpstep=4 / cplxblur=20.0 / qblur=0.5 / vbv_maxrate=50000 / vbv_bufsize=62500 / nal_hrd=none / filler=0 / ip_ratio=1.40 / pb_ratio=1.30 / aq=1:1.00
Default : Да
Forced : Нет

Аудио
Идентификатор : 2
Формат : AC-3
Формат/Информация : Audio Coding 3
Расширение режима : CM (complete main)
Параметр Endianness формата : Big
Идентификатор кодека : A_AC3
Продолжительность : 1 ч. 44 м.
Вид битрейта : Постоянный
Битрейт : 384 Кбит/сек
Каналы : 6 каналов
Расположение каналов : Front: L C R, Side: L R, LFE
Частота : 48,0 КГц
Частота кадров : 31,250 кадров/сек (1536 spf)
Битовая глубина : 16 бит
Метод сжатия : С потерями
Размер потока : 288 Мбайт (20%)
Заголовок : iTunes
Язык : Russian
Default : Да
Forced : Нет

Текст #1
Идентификатор : 3
Формат : UTF-8
Идентификатор кодека : S_TEXT/UTF8
Идентификатор кодека/Информация : UTF-8 Plain Text
Заголовок : Full
Язык : Russian
Default : Нет
Forced : Нет

Текст #2
Идентификатор : 4
Формат : UTF-8
Идентификатор кодека : S_TEXT/UTF8
Идентификатор кодека/Информация : UTF-8 Plain Text
Заголовок : Full
Язык : English
Default : Нет
Forced : Нет

Меню
00:00:00.000 : en:00:00:00.000
00:05:38.255 : en:00:05:38.255
00:12:23.493 : en:00:12:23.493
00:16:54.472 : en:00:16:54.472
00:25:36.118 : en:00:25:36.118
00:32:20.855 : en:00:32:20.855
00:41:37.954 : en:00:41:37.954
00:44:38.217 : en:00:44:38.217
00:52:38.989 : en:00:52:38.989
00:59:30.650 : en:00:59:30.650
01:04:50.845 : en:01:04:50.845
01:11:53.517 : en:01:11:53.517
01:20:23.318 : en:01:20:23.318
01:25:23.160 : en:01:25:23.160
01:30:45.648 : en:01:30:45.648
01:37:26.340 : en:01:37:26.340





   Похожие торренты   Торрент   Размер 
В этой теме нет новых непрочитанных сообщений. Пассажир / The Commuter (Жаума Кольет-Серра) [2018, боевик, триллер, драма, криминал, детектив, BDRip] DUB

192 | 3

2.14 ГБ

В этой теме нет новых непрочитанных сообщений. Пассажир / The Commuter (Жаума Кольет-Серра) [2018, боевик, триллер, драма, криминал, детектив, BDRip] DUB

56 | 9

1.41 ГБ

В этой теме нет новых непрочитанных сообщений. Пассажир / The Commuter (Жаума Кольет-Серра) [2018, боевик, триллер, драма, криминал, детектив, BDRip 1080p] MVO

11 | 4

7.93 ГБ

В этой теме нет новых непрочитанных сообщений. Пассажир / The Commuter (Жаума Кольет-Серра) [2018, боевик, триллер, драма, криминал, детектив, BDRip-AVC] 2xDUB (rus, ukr)

121 | 8

2.09 ГБ

В этой теме нет новых непрочитанных сообщений. Пассажир / The Commuter (Жаума Кольет-Серра) [2018, боевик, триллер, драма, криминал, детектив, HDRip-AVC] MVO

99 | 5

2.01 ГБ

В этой теме нет новых непрочитанных сообщений. Пассажир / The Commuter (Жаума Кольет-Серра) [2018, боевик, триллер, драма, криминал, детектив, HDRip] DUB

118 | 0

1.37 ГБ

В этой теме нет новых непрочитанных сообщений. Пассажир / The Commuter (Жаума Кольет-Серра) [2018, боевик, триллер, драма, криминал, детектив, HDRip] MVO

44 | 0

1.46 ГБ




Вы не можете начинать темы
Вы не можете отвечать на сообщения
Вы не можете редактировать свои сообщения
Вы не можете удалять свои сообщения
Вы не можете добавлять вложения

Перейти:  
 Вход
ppkBB3cker v.2 © 2008-2014 @ PPK
[ Time : 0.043s | 17 Queries | GZIP : Off ]

cron