img image001 image001 image001 image001 image001 image001 image001 image001 image001 image001 image001 image001 image001 image001 image001 image001

Planets Sun Sun Sun
Статистика раздачи
Автор: Снежана | Размер: 2.09 ГБ | Добавлен: 19 апр 2018
Раздают: 121    Качают: 8
Скачать торрент
Скачать торрент
Описание торрента

СообщениеДобавлено: 19 апр 2018 

Пассажир / The Commuter

Перевод: Профессиональный (полное дублирование) iTunes, субтитры: русские, английские
Формат: BDRip-AVC, MKV, H.264, AC3
Страна: Великобритания, Франция, США
Режиссер: Жаума Кольет-Серра
Жанр: боевик, триллер, драма, криминал, детектив
Продолжительность: 01:44:55
Год выпуска: 2018

В ролях: Лиам Нисон, Вера Фармига, Патрик Уилсон, Джонатан Бэнкс, Сэм Нил, Элизабет МакГоверн, Киллиан Скотт, Шазад Латиф, Энди Найман, Клара Лаго

Описание: Еще вчера его день начинался с поездки на работу в одном и том же поезде, в компании уже давно знакомых лиц, но сегодня таинственная незнакомка предлагает ему поучаствовать в эксперименте. Одна остановка, чтобы принять решение, и единственный шанс из тысячи победить. Осторожно, игра начинается…



Видео: 1024x428 (2.40:1), 23.976 fps, AVC MPEG-4 (H.264), ~1790 kbps, 0.170 bit/pixel
Аудио #1: Русский: 48 kHz, AC3 Dolby Digital, 3/2 (L,C,R,l,r) + LFE ch, ~384 kbps [Профессиональный (полное дублирование)]
Аудио #2: Украинский: 48 kHz, AC3 Dolby Digital, 2/0 (L,R) ch, ~224 kbps [Профессиональный (полное дублирование)]
Аудио #3: Английский: 48 kHz, AC3 Dolby Digital, 3/2 (L,C,R,l,r) + LFE ch, ~448 kbps [Оригинал]

Format : Matroska
Format version : Version 2
File size : 2.09 GiB
Duration : 1 h 45 min
Overall bit rate : 2 846 kb/s
Movie name : The Commuter 2018 from ExKinoRay
Encoded date : UTC 2018-04-16 22:42:46
Writing application : mkvmerge v5.6.0 ('Kenya Kane') built on May 27 2012 16:44:04
Writing library : libebml v1.2.3 + libmatroska v1.3.0

Video
ID : 1
Format : AVC
Format/Info : Advanced Video Codec
Format profile :
Format settings, CABAC : Yes
Format settings, ReFrames : 12 frames
Codec ID : V_MPEG4/ISO/AVC
Duration : 1 h 45 min
Bit rate : 1 790 kb/s
Width : 1 024 pixels
Height : 428 pixels
Display aspect ratio : 2.40:1
Frame rate mode : Constant
Frame rate : 23.976 (23976/1000) FPS
Color space : YUV
Chroma subsampling : 4:2:0
Bit depth : 8 bits
Scan type : Progressive
Bits/(Pixel*Frame) : 0.170
Stream size : 1.27 GiB (61%)
Title : Enigma
Writing library : x264 core 152 r2851 ba24899
Encoding settings : cabac=1 / ref=12 / deblock=1:-2:-2 / analyse=0x3:0x113 / me=umh / subme=10 / psy=1 / psy_rd=1.02:0.10 / mixed_ref=1 / me_range=32 / chroma_me=1 / trellis=2 / 8x8dct=1 / cqm=0 / deadzone=21,11 / fast_pskip=0 / chroma_qp_offset=-3 / threads=12 / lookahead_threads=3 / sliced_threads=0 / nr=0 / decimate=0 / interlaced=0 / bluray_compat=0 / constrained_intra=0 / bframes=12 / b_pyramid=2 / b_adapt=2 / b_bias=0 / direct=3 / weightb=1 / open_gop=0 / weightp=2 / keyint=240 / keyint_min=23 / scenecut=40 / intra_refresh=0 / rc_lookahead=40 / rc=2pass / mbtree=0 / bitrate=1790 / ratetol=1.0 / qcomp=0.60 / qpmin=0 / qpmax=51 / qpstep=4 / cplxblur=20.0 / qblur=0.5 / vbv_maxrate=50000 / vbv_bufsize=62500 / nal_hrd=none / filler=0 / ip_ratio=1.40 / pb_ratio=1.30 / aq=3:0.90
Language : English
Default : Yes
Forced : No
Color range : Limited
Color primaries : BT.709
Transfer characteristics : BT.709
Matrix coefficients : BT.709

Audio #1
ID : 2
Format : AC-3
Format/Info : Audio Coding 3
Mode extension : CM (complete main)
Format settings, Endianness : Big
Codec ID : A_AC3
Duration : 1 h 45 min
Bit rate mode : Constant
Bit rate : 384 kb/s
Channel(s) : 6 channels
Channel positions : Front: L C R, Side: L R, LFE
Sampling rate : 48.0 kHz
Frame rate : 31.250 FPS (1536 spf)
Compression mode : Lossy
Stream size : 288 MiB (13%)
Title : iTunes
Language : Russian
Default : Yes
Forced : No

Audio #2
ID : 3
Format : AC-3
Format/Info : Audio Coding 3
Mode extension : CM (complete main)
Format settings, Endianness : Big
Codec ID : A_AC3
Duration : 1 h 45 min
Bit rate mode : Constant
Bit rate : 224 kb/s
Channel(s) : 2 channels
Channel positions : Front: L R
Sampling rate : 48.0 kHz
Frame rate : 31.250 FPS (1536 spf)
Compression mode : Lossy
Stream size : 168 MiB (8%)
Title : iTunes
Language : Ukrainian
Default : No
Forced : No

Audio #3
ID : 4
Format : AC-3
Format/Info : Audio Coding 3
Mode extension : CM (complete main)
Format settings, Endianness : Big
Codec ID : A_AC3
Duration : 1 h 45 min
Bit rate mode : Constant
Bit rate : 448 kb/s
Channel(s) : 6 channels
Channel positions : Front: L C R, Side: L R, LFE
Sampling rate : 48.0 kHz
Frame rate : 31.250 FPS (1536 spf)
Compression mode : Lossy
Stream size : 337 MiB (16%)
Language : English
Default : No
Forced : No

Text #1
ID : 5
Format : UTF-8
Codec ID : S_TEXT/UTF8
Codec ID/Info : UTF-8 Plain Text
Language : Russian
Default : No
Forced : No

Text #2
ID : 6
Format : UTF-8
Codec ID : S_TEXT/UTF8
Codec ID/Info : UTF-8 Plain Text
Language : English
Default : No
Forced : No

Menu
00:00:00.000 : en:00:00:00.000
00:05:38.255 : en:00:05:38.255
00:12:23.493 : en:00:12:23.493
00:16:54.472 : en:00:16:54.472
00:25:36.118 : en:00:25:36.118
00:32:20.855 : en:00:32:20.855
00:41:37.954 : en:00:41:37.954
00:44:38.217 : en:00:44:38.217
00:52:38.989 : en:00:52:38.989
00:59:30.650 : en:00:59:30.650
01:04:50.845 : en:01:04:50.845
01:11:53.517 : en:01:11:53.517
01:20:23.318 : en:01:20:23.318
01:25:23.160 : en:01:25:23.160
01:30:45.648 : en:01:30:45.648
01:37:26.340 : en:01:37:26.340












   Похожие торренты   Торрент   Размер 
В этой теме нет новых непрочитанных сообщений. Пассажир / The Commuter (Жаума Кольет-Серра) [2018, боевик, триллер, драма, криминал, детектив, BDRip] DUB

192 | 3

2.14 ГБ

В этой теме нет новых непрочитанных сообщений. Пассажир / The Commuter (Жаума Кольет-Серра) [2018, боевик, триллер, драма, криминал, детектив, BDRip-AVC] DUB

164 | 8

1.41 ГБ

В этой теме нет новых непрочитанных сообщений. Пассажир / The Commuter (Жаума Кольет-Серра) [2018, боевик, триллер, драма, криминал, детектив, BDRip] DUB

56 | 9

1.41 ГБ

В этой теме нет новых непрочитанных сообщений. Пассажир / The Commuter (Жаума Кольет-Серра) [2018, боевик, триллер, драма, криминал, детектив, BDRip 1080p] MVO

11 | 4

7.93 ГБ

В этой теме нет новых непрочитанных сообщений. Пассажир / The Commuter (Жаума Кольет-Серра) [2018, боевик, триллер, драма, криминал, детектив, LowHDRip] MVO

94 | 7

750.41 МБ

В этой теме нет новых непрочитанных сообщений. Пассажир / The Commuter (Жаума Кольет-Серра) [2018, боевик, триллер, драма, криминал, детектив, HDRip-AVC] MVO

99 | 5

2.01 ГБ

В этой теме нет новых непрочитанных сообщений. Пассажир / The Commuter (Жаума Кольет-Серра) [2018, боевик, триллер, драма, криминал, детектив, HDRip] DUB

118 | 0

1.37 ГБ




Вы не можете начинать темы
Вы не можете отвечать на сообщения
Вы не можете редактировать свои сообщения
Вы не можете удалять свои сообщения
Вы не можете добавлять вложения

Перейти:  
 Вход
ppkBB3cker v.2 © 2008-2014 @ PPK
[ Time : 0.026s | 16 Queries | GZIP : Off ]

cron