img image001 image001 image001 image001 image001 image001 image001 image001 image001 image001 image001 image001 image001 image001 image001 image001

Planets Sun Sun Sun
Статистика раздачи
Автор: Снежана | Размер: 1.43 ГБ | Добавлен: 19 апр 2018
Раздают: 5    Качают: 0
Скачать торрент
Скачать торрент
Описание торрента

СообщениеДобавлено: 19 апр 2018 

Агония / Agonie / Agony


Перевод: Любительский (одноголосый) [перевёл и озвучил BadBajo {Андрей Важенин}]; субтитры: отсутствуют
Формат: WEBDLRip, AVI, XviD, AC3
Страна: Австрия, Германия
Режиссер: Дэвид Клэй Диас / David Clay Diaz
Жанр: драма, триллер
Продолжительность: 01:30:03
Год выпуска: 2016
В ролях: Александер Сртшин, Самуэль Шнайдер, Симон Хатцль, Александра Шмидт, Лоренц Фляйсснер, Патрик Матияшевич, Мартина Поэль
Описание: Фильм рассказывает о нравах современной австрийской молодёжи, а конкретно - о двух вполне обычных молодых парнях из Вены, Алексе и Кристиане. Их истории развиваются параллельно . Алекс живёт с родителями, занимается боксом, тусуется с друзьями, в то же время характер у него конфликтный, дерзкий, не ладит с отцом-полицейским, латентный гей. Кристиан, наоборот, спокойный парень, учится на юриста, встречается с девушкой , но что-то его тоже гложет изнутри. С виду обычная жизненная история превращается в агонию и приводит обоих парней к печальному исходу .



Видео: 720x368 (1,957:1); 25 fps; XviD MPEG-4; ~1877 kbps; 0.283 bit/pixel
Аудио 1: Русский: AC3; 48 KHz; 2 ch; 192 Kbps [Любительский (одноголосый)]
Аудио 2: Немецкий: AC3; 48 KHz; 2 ch; 192 Kbps [Оригинал]


Общее :
Формат : AVI
Формат/Информация : Audio Video Interleave
Размер файла : 1,43 Гбайт
Продолжительность : 1 ч. 30 м.
Общий поток : 2275 Кбит/сек
Программа кодирования : VirtualDubMod 1.5.10.3 | www.virtualdub-fr.org || (build 2550/release)
Библиотека кодирования : VirtualDubMod build 2550/release

Видео :
Идентификатор : 0
Формат : MPEG-4 Visual
Профиль формата : Advanced Simple@L5
Настройки формата : BVOP2 / Custom Matrix
Параметр BVOP формата : 2
Параметр QPel формата : Нет
Параметр GMC формата : Без точки перехода
Параметр матрицы формата : Выборочная
Идентификатор кодека : XVID
Идентификатор кодека/Подсказка : XviD
Продолжительность : 1 ч. 30 м.
Битрейт : 1877 Кбит/сек
Ширина : 720 пикселей
Высота : 368 пикселей
Соотношение сторон : 1,957
Частота кадров : 25,000 кадров/сек
Цветовое пространство : YUV
Субдискретизация насыщенности : 4:2:0
Битовая глубина : 8 бит
Тип развёртки : Прогрессивная
Метод сжатия : С потерями
Бит/(Пиксели*Кадры) : 0.283
Размер потока : 1,18 Гбайт (82%)
Библиотека кодирования : XviD 73

Аудио #1 :
Идентификатор : 1
Формат : AC-3
Формат/Информация : Audio Coding 3
Идентификатор кодека : 2000
Продолжительность : 1 ч. 30 м.
Вид битрейта : Постоянный
Битрейт : 192 Кбит/сек
Каналы : 2 канала
Расположение каналов : Front: L R
Частота : 48,0 КГц
Частота кадров : 31,250 кадров/сек (1536 SPF)
Битовая глубина : 16 бит
Метод сжатия : С потерями
Размер потока : 124 Мбайт (8%)
Выравнивание : Разделение по промежуткам
Продолжительность промежутка : 40 мс. (1,00 видеокадр)
Время предзагрузки промежутка : 500 мс.
ServiceKind/String : Complete Main

Аудио #2 :
Идентификатор : 2
Формат : AC-3
Формат/Информация : Audio Coding 3
Идентификатор кодека : 2000
Продолжительность : 1 ч. 30 м.
Вид битрейта : Постоянный
Битрейт : 192 Кбит/сек
Каналы : 2 канала
Расположение каналов : Front: L R
Частота : 48,0 КГц
Частота кадров : 31,250 кадров/сек (1536 SPF)
Битовая глубина : 16 бит
Метод сжатия : С потерями
Размер потока : 124 Мбайт (8%)
Выравнивание : Разделение по промежуткам
Продолжительность промежутка : 40 мс. (1,00 видеокадр)
Время предзагрузки промежутка : 500 мс.
ServiceKind/String : Complete Main


















   Похожие торренты   Торрент   Размер 
В этой теме нет новых непрочитанных сообщений. Возмездие / Retribution ( Дэнни Элбери, Дэвид Бисфам) [2016, драма, криминал, триллер, WEBDLRip] MVO

1 | 0

1.37 ГБ

В этой теме нет новых непрочитанных сообщений. Милосердие Грэйс / An Uncommon Grace (Дэвид Маккэй) [2017, драма, мелодрама, WEBDLRip] MVO / Драмы

8 | 0

1.3 ГБ

В этой теме нет новых непрочитанных сообщений. Вне контроля / Incontrol (Куртис Дэвид Хардер) [2017, драма, фантастика, триллер, WEBDLRip] MVO

32 | 0

1.36 ГБ

В этой теме нет новых непрочитанных сообщений. Как это заканчивается / How It Ends (Дэвид М. Розенталь) [2018, фантастика, боевик, триллер, драма, детектив, приключения, WEBDLRip] MVO

80 | 11

2.15 ГБ

В этой теме нет новых непрочитанных сообщений. Лос-Анджелес в огне / Kings (Дениз Гамзе Эргювен) [2017, триллер, драма, мелодрама, криминал, WEBDLRip] MVO / Драмы

22 | 0

1.46 ГБ

В этой теме нет новых непрочитанных сообщений. Мимозы / Mimosas (Оливер Лакс) [2016, драма, WEBDLRip] MVO / Драмы

2 | 0

1.37 ГБ

В этой теме нет новых непрочитанных сообщений. Турбулентность / Turbulence (Соран Мардоки) [2016, драма, WEBDLRip] MVO / Драмы

13 | 0

1.31 ГБ




Вы не можете начинать темы
Вы не можете отвечать на сообщения
Вы не можете редактировать свои сообщения
Вы не можете удалять свои сообщения
Вы не можете добавлять вложения

Перейти:  
 Вход
ppkBB3cker v.2 © 2008-2014 @ PPK
[ Time : 0.057s | 17 Queries | GZIP : Off ]

cron