img image001 image001 image001 image001 image001 image001 image001 image001 image001 image001 image001 image001 image001 image001 image001 image001

Planets Sun Sun Sun
Статистика раздачи
Автор: Снежана | Размер: 2.9 ГБ | Добавлен: 20 апр 2018
Раздают: 10    Качают: 11
Скачать торрент
Скачать торрент
Описание торрента

СообщениеДобавлено: 20 апр 2018 

Джуманджи: Зов джунглей / Jumanji: Welcome to the Jungle


Перевод: Профессиональный (полное дублирование) Лицензия
Субтитры: Русские, украинские, английские
Формат: HDRip-AVC, MKV, H.264, AC3
Страна: США
Режиссер: Джейк Кэздан
Жанр: фэнтези, боевик, комедия, приключения
Продолжительность: 01:59:03
Год выпуска: 2017
В ролях: Дуэйн Джонсон, Кевин Харт, Джек Блэк, Карен Гиллан, Риз Дэрби, Бобби Каннавейл, Ник Джонас, Алекс Вулф, Сер’Дариус Блэйн, Мэдисон Исман

Описание: Четверо подростков оказываются внутри игры «Джуманджи». Их ждет схватка с носорогами, черными мамбами, а на каждом шагу будет подстерегать бесконечная череда ловушек и головоломок. Чтобы пройти игру и остаться в живых, им придется перевоплотиться в персонажей игры: робкий и застенчивый Спенсер превращается в отважного и сильного исследователя, здоровяк Фридж — в коротышку, модница и красавица Беттани — в профессора, а неуклюжая и нескладная Марта становится бесстрашной и ловкой амазонкой. Друзьям придется привыкнуть к совершенно новым и таким непривычным для себя ролям и найти дорогу домой.



Видео: 1024x426 (2.40:1), 23.976 fps, AVC MPEG-4 (x264), High@L4,1, ~ 2362 Kbps, 0.226 bit/pixel

Аудио #1: Русский: 48 kHz/16 бит, AC3 Dolby Digital, 3/2 (L,C,R,l,r) + LFE ch, ~ 448 kbps avg [Профессиональный (полное дублирование), Лицензия]
Аудио #2: Украинский: 48 kHz/16 бит, AC3 Dolby Digital, 2 ch, ~ 224 kbps [Профессиональный (полное дублирование)]
Аудио #3: Английский: 48 kHz/16 бит, AC3 Dolby Digital, 3/2 (L,C,R,l,r) + LFE ch, ~ 448 kbps avg [Оригинал]





Unique ID : 244505098869774478882861170292898911682 (0xB7F1F81A024EA5E7AF019718CAA3D5C2)
Complete name : D:Jumanji.Welcome.to.the.Jungle.2017.HDRip.AVC.ExKinoRay.mkv
Format : Matroska
Format version : Version 2
File size : 2.90 GiB
Duration : 1 h 59 min
Overall bit rate : 3 485 kb/s
Movie name : Jumanji: Welcome to the Jungle 2017 from ExKinoRay
Encoded date : UTC 2018-04-20 00:50:16
Writing application : mkvmerge v5.6.0 ('Kenya Kane') built on May 27 2012 16:44:04
Writing library : libebml v1.2.3 + libmatroska v1.3.0

Video
ID : 1
Format : AVC
Format/Info : Advanced Video Codec
Format profile :
Format settings, CABAC : Yes
Format settings, ReFrames : 12 frames
Codec ID : V_MPEG4/ISO/AVC
Duration : 1 h 59 min
Bit rate : 2 362 kb/s
Width : 1 024 pixels
Height : 426 pixels
Display aspect ratio : 2.40:1
Frame rate mode : Constant
Frame rate : 23.976 (23976/1000) FPS
Color space : YUV
Chroma subsampling : 4:2:0
Bit depth : 8 bits
Scan type : Progressive
Bits/(Pixel*Frame) : 0.226
Stream size : 1.91 GiB (66%)
Title : Enigma
Writing library : x264 core 152 r2851 ba24899
Encoding settings : cabac=1 / ref=12 / deblock=1:-2:-2 / analyse=0x3:0x113 / me=umh / subme=10 / psy=1 / psy_rd=1.03:0.10 / mixed_ref=1 / me_range=32 / chroma_me=1 / trellis=2 / 8x8dct=1 / cqm=0 / deadzone=21,11 / fast_pskip=0 / chroma_qp_offset=-3 / threads=12 / lookahead_threads=3 / sliced_threads=0 / nr=0 / decimate=0 / interlaced=0 / bluray_compat=0 / constrained_intra=0 / bframes=12 / b_pyramid=2 / b_adapt=2 / b_bias=0 / direct=3 / weightb=1 / open_gop=0 / weightp=2 / keyint=240 / keyint_min=23 / scenecut=40 / intra_refresh=0 / rc_lookahead=40 / rc=2pass / mbtree=0 / bitrate=2362 / ratetol=1.0 / qcomp=0.60 / qpmin=0 / qpmax=51 / qpstep=4 / cplxblur=20.0 / qblur=0.5 / vbv_maxrate=50000 / vbv_bufsize=62500 / nal_hrd=none / filler=0 / ip_ratio=1.40 / pb_ratio=1.30 / aq=3:0.90
Language : English
Default : Yes
Forced : No
Color range : Limited
Color primaries : BT.709
Transfer characteristics : BT.709
Matrix coefficients : BT.709

Audio #1
ID : 2
Format : AC-3
Format/Info : Audio Coding 3
Mode extension : CM (complete main)
Format settings, Endianness : Big
Codec ID : A_AC3
Duration : 1 h 59 min
Bit rate mode : Constant
Bit rate : 448 kb/s
Channel(s) : 6 channels
Channel positions : Front: L C R, Side: L R, LFE
Sampling rate : 48.0 kHz
Frame rate : 31.250 FPS (1536 spf)
Compression mode : Lossy
Stream size : 381 MiB (13%)
Title : Dub (Blu-Ray)
Language : Russian
Default : Yes
Forced : No

Audio #2
ID : 3
Format : AC-3
Format/Info : Audio Coding 3
Mode extension : CM (complete main)
Format settings, Endianness : Big
Codec ID : A_AC3
Duration : 1 h 59 min
Bit rate mode : Constant
Bit rate : 224 kb/s
Channel(s) : 2 channels
Channel positions : Front: L R
Sampling rate : 48.0 kHz
Frame rate : 31.250 FPS (1536 spf)
Compression mode : Lossy
Stream size : 191 MiB (6%)
Language : Ukrainian
Default : No
Forced : No

Audio #3
ID : 4
Format : AC-3
Format/Info : Audio Coding 3
Mode extension : CM (complete main)
Format settings, Endianness : Big
Codec ID : A_AC3
Duration : 1 h 59 min
Bit rate mode : Constant
Bit rate : 448 kb/s
Channel(s) : 6 channels
Channel positions : Front: L C R, Side: L R, LFE
Sampling rate : 48.0 kHz
Frame rate : 31.250 FPS (1536 spf)
Compression mode : Lossy
Stream size : 381 MiB (13%)
Language : English
Default : No
Forced : No

Text #1
ID : 5
Format : UTF-8
Codec ID : S_TEXT/UTF8
Codec ID/Info : UTF-8 Plain Text
Title : Forced
Language : Russian
Default : Yes
Forced : Yes

Text #2
ID : 6
Format : UTF-8
Codec ID : S_TEXT/UTF8
Codec ID/Info : UTF-8 Plain Text
Language : Russian
Default : No
Forced : No

Text #3
ID : 7
Format : UTF-8
Codec ID : S_TEXT/UTF8
Codec ID/Info : UTF-8 Plain Text
Language : Ukrainian
Default : No
Forced : No

Text #4
ID : 8
Format : UTF-8
Codec ID : S_TEXT/UTF8
Codec ID/Info : UTF-8 Plain Text
Language : English
Default : No
Forced : No

Menu
00:00:00.000 : en:00:00:00.000
00:07:18.104 : en:00:07:18.104
00:17:15.993 : en:00:17:15.993
00:23:23.235 : en:00:23:23.235
00:29:24.972 : en:00:29:24.972
00:42:28.546 : en:00:42:28.546
00:47:11.162 : en:00:47:11.162
00:54:26.722 : en:00:54:26.722
01:03:20.839 : en:01:03:20.839
01:10:21.801 : en:01:10:21.801
01:15:51.672 : en:01:15:51.672
01:24:10.087 : en:01:24:10.087
01:28:20.295 : en:01:28:20.295
01:33:48.414 : en:01:33:48.414
01:42:22.887 : en:01:42:22.887
01:48:31.839 : en:01:48:31.839





   Похожие торренты   Торрент   Размер 
В этой теме нет новых непрочитанных сообщений. Джуманджи: Зов джунглей / Jumanji: Welcome to the Jungle (Джейк Кэздан) [2017, фэнтези, боевик, комедия, приключения, WEB-DLRip-AVC ] 2xDUB

54 | 5

2.43 ГБ

В этой теме нет новых непрочитанных сообщений. Джуманджи: Зов джунглей / Jumanji: Welcome to the Jungle (Джейк Кэздан) [2017, фэнтези, боевик, комедия, приключения, HDRip] DUB / Приключения

144 | 6

1.45 ГБ

В этой теме нет новых непрочитанных сообщений. Джуманджи: Зов джунглей / Jumanji: Welcome to the Jungle (Джейк Кэздан) [2017, фэнтези, боевик, комедия, приключения, HDRip] DUB

300 | 0

2.05 ГБ

В этой теме нет новых непрочитанных сообщений. Джуманджи: Зов джунглей / Jumanji: Welcome to the Jungle (Джейк Кэздан) [2017, фэнтези, боевик, комедия, приключения, HDRip] DUB

355 | 0

1.37 ГБ

В этой теме нет новых непрочитанных сообщений. Джуманджи: Зов джунглей / Jumanji: Welcome to the Jungle (Джейк Кэздан) [2017, фэнтези, боевик, комедия, приключения, BDRip] DUB / Приключения

73 | 8

2.18 ГБ

В этой теме нет новых непрочитанных сообщений. Джуманджи: Зов джунглей / Jumanji: Welcome to the Jungle (Джейк Кэздан) [2017, фэнтези, боевик, комедия, приключения, BDRip] DUB / Приключения

188 | 9

1.46 ГБ

В этой теме нет новых непрочитанных сообщений. Джуманджи: Зов джунглей / Jumanji: Welcome to the Jungle (Джейк Кэздан) [2017, фэнтези, боевик, комедия, приключения, BDRip-AVC] DUB / Приключения

249 | 7

1.46 ГБ




Вы не можете начинать темы
Вы не можете отвечать на сообщения
Вы не можете редактировать свои сообщения
Вы не можете удалять свои сообщения
Вы не можете добавлять вложения

Перейти:  
 Вход
ppkBB3cker v.2 © 2008-2014 @ PPK
[ Time : 0.025s | 16 Queries | GZIP : Off ]

cron