img image001 image001 image001 image001 image001 image001 image001 image001 image001 image001 image001 image001 image001 image001 image001 image001

Planets Sun Sun Sun
Статистика раздачи
Автор: Снежана | Размер: 1.4 ГБ | Добавлен: 20 апр 2018
Раздают: 146    Качают: 6
Скачать торрент
Скачать торрент
Описание торрента

СообщениеДобавлено: 20 апр 2018 

Секретное досье / The Post


Перевод: Профессиональный (полное дублирование) iTunes
Субтитры: Русские, английские
Формат: BDRip-AVC, MKV, H.264, AC3
Страна: Великобритания, США
Режиссер: Стивен Спилберг
Жанр: триллер, драма, биография, история
Продолжительность: 01:55:58
Год выпуска: 2017
В ролях: Мэрил Стрип, Том Хэнкс, Сара Полсон, Боб Оденкёрк, Трэйси Леттс, Брэдли Уитфорд, Брюс Гринвуд, Мэттью Риз, Элисон Бри, Кэрри Кун

Описание: История Кэтрин Грэм, первой женщины-издателя газеты «Вашингтон пост», и редактора Бена Брэдли. Они вступают в гонку с «Нью-Йорк таймс» за право пролить свет на государственные тайны, скрывавшиеся более 30 лет. Журналистам придется преодолеть свои разногласия и рискнуть карьерой и свободой, чтобы мир узнал правду.



Видео: 1024x554 (2.40:1), 23,976 fps, AVC MPEG-4 (x264), High@L4,1, ~ 1 353 kbps avg, 0.099
Аудио: 48 kHz, AC3 Dolby Digital, 3/2 (L,C,R,l,r) + LFE ch, ~ 384 kbps avg





Общее
Уникальный идентификатор : 206980942286860151298220004076393436909 (0x9BB71457EF3FD948A78D70D56D5996ED)
Полное имя : E:OlLanDGroupThe.Post.2017.BDRip(AVC).OlLanDGroup.mkv
Формат : Matroska
Версия формата : Version 2
Размер файла : 1,40 Гбайт
Продолжительность : 1 ч. 55 м.
Общий поток : 1734 Кбит/сек
Название фильма : The.Post.2017 #TorpedoUK#
Дата кодирования : UTC 2018-04-20 01:44:26
Программа кодирования : mkvmerge v7.8.0 ('River Man') 32bit built on Apr 3 2015 12:11:22
Библиотека кодирования : libebml v1.3.1 + libmatroska v1.4.2
Обложка : Yes
Attachments : small_cover.jpg / small_cover_land.jpg / cover.jpg / cover_land.jpg

Видео
Идентификатор : 1
Формат : AVC
Формат/Информация : Advanced Video Codec
Профиль формата :
Параметр CABAC формата : Да
Параметр ReFrames формата : 10 кадров
Идентификатор кодека : V_MPEG4/ISO/AVC
Продолжительность : 1 ч. 55 м.
Битрейт : 1353 Кбит/сек
Ширина : 1024 пикселя
Высота : 554 пикселя
Соотношение сторон : 1,85:1
Режим частоты кадров : Постоянный
Частота кадров : 23,976 (24000/1001) кадра/сек
Цветовое пространство : YUV
Субдискретизация насыщенности : 4:2:0
Битовая глубина : 8 бит
Тип развёртки : Прогрессивная
Бит/(Пиксели*Кадры) : 0.099
Размер потока : 1,07 Гбайт (76%)
Библиотека кодирования : x264 core 146 r2538 121396c
Настройки программы : cabac=1 / ref=10 / deblock=1:-2:-3 / analyse=0x3:0x133 / me=umh / subme=11 / psy=1 / psy_rd=0.96:0.07 / mixed_ref=1 / me_range=48 / chroma_me=1 / trellis=2 / 8x8dct=1 / cqm=0 / deadzone=21,11 / fast_pskip=1 / chroma_qp_offset=-3 / threads=6 / lookahead_threads=1 / sliced_threads=0 / nr=0 / decimate=1 / interlaced=0 / bluray_compat=0 / constrained_intra=0 / bframes=10 / b_pyramid=2 / b_adapt=2 / b_bias=0 / direct=3 / weightb=1 / open_gop=0 / weightp=2 / keyint=240 / keyint_min=23 / scenecut=40 / intra_refresh=0 / rc_lookahead=40 / rc=2pass / mbtree=0 / bitrate=1353 / ratetol=1.0 / qcomp=0.60 / qpmin=0 / qpmax=69 / qpstep=4 / cplxblur=20.0 / qblur=0.5 / vbv_maxrate=50000 / vbv_bufsize=62500 / nal_hrd=none / filler=0 / ip_ratio=1.40 / pb_ratio=1.30 / aq=1:1.00
Default : Да
Forced : Нет

Аудио
Идентификатор : 2
Формат : AC-3
Формат/Информация : Audio Coding 3
Расширение режима : CM (complete main)
Параметр Endianness формата : Big
Идентификатор кодека : A_AC3
Продолжительность : 1 ч. 55 м.
Вид битрейта : Постоянный
Битрейт : 384 Кбит/сек
Каналы : 6 каналов
Расположение каналов : Front: L C R, Side: L R, LFE
Частота : 48,0 КГц
Частота кадров : 31,250 кадров/сек (1536 spf)
Битовая глубина : 16 бит
Метод сжатия : С потерями
Размер потока : 319 Мбайт (22%)
Заголовок : iTunes
Язык : Russian
Default : Да
Forced : Нет

Текст #1
Идентификатор : 3
Формат : UTF-8
Идентификатор кодека : S_TEXT/UTF8
Идентификатор кодека/Информация : UTF-8 Plain Text
Заголовок : Full
Язык : Russian
Default : Нет
Forced : Нет

Текст #2
Идентификатор : 4
Формат : UTF-8
Идентификатор кодека : S_TEXT/UTF8
Идентификатор кодека/Информация : UTF-8 Plain Text
Заголовок : Full
Язык : English
Default : Нет
Forced : Нет

Текст #3
Идентификатор : 5
Формат : UTF-8
Идентификатор кодека : S_TEXT/UTF8
Идентификатор кодека/Информация : UTF-8 Plain Text
Заголовок : SDH
Язык : English
Default : Нет
Forced : Нет

Меню
00:00:00.000 : en:Chapter 01
00:05:01.926 : en:Chapter 02
00:10:08.733 : en:Chapter 03
00:12:32.793 : en:Chapter 04
00:16:22.398 : en:Chapter 05
00:19:19.616 : en:Chapter 06
00:24:53.325 : en:Chapter 07
00:30:23.988 : en:Chapter 08
00:34:51.672 : en:Chapter 09
00:39:08.679 : en:Chapter 10
00:43:25.811 : en:Chapter 11
00:48:20.564 : en:Chapter 12
00:54:38.692 : en:Chapter 13
00:59:39.784 : en:Chapter 14
01:03:49.116 : en:Chapter 15
01:09:59.570 : en:Chapter 16
01:14:04.857 : en:Chapter 17
01:20:20.273 : en:Chapter 18
01:24:30.732 : en:Chapter 19
01:30:22.667 : en:Chapter 20
01:35:23.759 : en:Chapter 21
01:38:46.545 : en:Chapter 22
01:43:07.723 : en:Chapter 23
01:49:27.852 : en:Chapter 24





   Похожие торренты   Торрент   Размер 
В этой теме нет новых непрочитанных сообщений. Секретное досье / The Post (Стивен Спилберг) [2017, триллер, драма, биография, история, BDRip] DUB

49 | 6

1.41 ГБ

В этой теме нет новых непрочитанных сообщений. Секретное досье / The Post (Стивен Спилберг) [2017, триллер, драма, биография, история, BDRip] DUB

69 | 5

746.62 МБ

В этой теме нет новых непрочитанных сообщений. Секретное досье / The Post (Стивен Спилберг) [2017, триллер, драма, биография, история, HDRip] MVO

44 | 3

2.18 ГБ

В этой теме нет новых непрочитанных сообщений. Секретное досье / The Post (Стивен Спилберг) [2017, Триллер, драма, биография, история, HDRip] MVO

85 | 6

1.46 ГБ

В этой теме нет новых непрочитанных сообщений. Шпионский мост / Bridge of Spies (Стивен Спилберг) [2015, триллер, драма, биография, история, HDRip] DUB

1313 | 50

2.73 ГБ

В этой теме нет новых непрочитанных сообщений. Шпионский мост / Bridge of Spies (Стивен Спилберг) [2015, триллер, драма, биография, BDRip] DUB

2516 | 48

1.46 ГБ

В этой теме нет новых непрочитанных сообщений. Линкольн / Lincoln (Стивен Спилберг) [2012, драма, военный, биография, история, BDRip-AVC] DUB

4 | 0

1.46 ГБ




Вы не можете начинать темы
Вы не можете отвечать на сообщения
Вы не можете редактировать свои сообщения
Вы не можете удалять свои сообщения
Вы не можете добавлять вложения

Перейти:  
 Вход
ppkBB3cker v.2 © 2008-2014 @ PPK
[ Time : 0.023s | 17 Queries | GZIP : Off ]

cron