img image001 image001 image001 image001 image001 image001 image001 image001 image001 image001 image001 image001 image001 image001 image001 image001

Planets Sun Sun Sun
Статистика раздачи
Автор: Снежана | Размер: 744.87 МБ | Добавлен: 23 апр 2018
Раздают: 6    Качают: 0
Скачать торрент
Скачать торрент
Описание торрента

СообщениеДобавлено: 23 апр 2018 

Плохая партия / The Bad Batch


Перевод: Профессиональный (многоголосый закадровый)(СВ Студия), субтитры: русские, английские
Формат: HDRip-AVC, MKV, H.264, AAC
Страна: США
Режиссер: Ана Лили Амирпур
Жанр: Фантастика, мелодрама, драма, ужасы
Продолжительность: 01:58:59
Год выпуска: 2016
В ролях:
Сьюки Уотерхаус, Джейсон Момоа, Джайда Финк, Киану Ривз, Джим Керри, Йолонда Росс, Ай Хасегава, Джованни Рибизи, Луи Лопез Мл., Е.Р. Руис, Кори Робертс, Альма Ивонн, Алина Алилуйкина, Эшли Биллер, Нина Манскер, Эмили О’Брайэн, Джозеф Авиль, Джонни Линч
Описание:
Футуристическая антиутопия разворачивается на территории Америки, где все неугодные обществу люди изгоняются в отгороженную от цивилизации техасскую пустыню. Девушку Арлин по прибытии на дикую территорию ловит группа каннибалов, и перед новенькой маячат совсем безрадостные перспективы — бороться за жизнь любой ценой или быть медленно съеденной.



Видео: 800x336 (2.40:1), 23.976 fps, AVC MPEG-4 (H.264), ~801 kbps, 0.124 bit/pixel
Аудио: 48 kHz, AАС, 2 ch, ~76 kbps
Общее
Уникальный идентификатор : 224151310765560717312074056017556577440 (0xA8A1F8DEAC0494B4A500F013BBF09CA0)
Полное имя : M:\The.Bad.Batch.2016.mkv
Формат : Matroska
Версия формата : Version 4 / Version 2
Размер файла : 745 Мбайт
Продолжительность : 1 ч. 58 м.
Общий поток : 878 Кбит/сек
Дата кодирования : UTC 2018-04-21 21:14:27
Программа кодирования : mkvmerge v15.0.0 ('Duel with the Devil') 64-bit
Библиотека кодирования : libebml v1.3.5 + libmatroska v1.4.5

Видео
Идентификатор : 1
Формат : AVC
Формат/Информация : Advanced Video Codec
Профиль формата :
Настройки формата : CABAC / 10 Ref Frames
Параметр CABAC формата : Да
Параметр RefFrames формата : 10 кадров
Идентификатор кодека : V_MPEG4/ISO/AVC
Продолжительность : 1 ч. 58 м.
Битрейт : 801 Кбит/сек
Ширина : 800 пикселей
Высота : 336 пикселей
Соотношение сторон : 2,40:1
Режим частоты кадров : Постоянный
Частота кадров : 23,976 (24000/1001) кадра/сек
Цветовое пространство : YUV
Субдискретизация насыщенности : 4:2:0
Битовая глубина : 8 бит
Тип развёртки : Прогрессивная
Бит/(Пиксели*Кадры) : 0.124
Размер потока : 679 Мбайт (91%)
Библиотека кодирования : x264 core 155 r2901 7d0ff22
Настройки программы : cabac=1 / ref=10 / deblock=1:-3:-3 / analyse=0x3:0x133 / me=umh / subme=11 / psy=1 / psy_rd=1.00:0.10 / mixed_ref=1 / me_range=32 / chroma_me=1 / trellis=2 / 8x8dct=1 / cqm=0 / deadzone=21,11 / fast_pskip=0 / chroma_qp_offset=-3 / threads=6 / lookahead_threads=1 / sliced_threads=0 / nr=0 / decimate=0 / interlaced=0 / bluray_compat=0 / constrained_intra=0 / bframes=10 / b_pyramid=2 / b_adapt=2 / b_bias=0 / direct=3 / weightb=1 / open_gop=0 / weightp=2 / keyint=240 / keyint_min=23 / scenecut=40 / intra_refresh=0 / rc_lookahead=40 / rc=2pass / mbtree=1 / bitrate=801 / ratetol=1.0 / qcomp=0.60 / qpmin=0 / qpmax=69 / qpstep=4 / cplxblur=20.0 / qblur=0.5 / vbv_maxrate=50000 / vbv_bufsize=62500 / nal_hrd=none / filler=0 / ip_ratio=1.40 / aq=3:1.00
Default : Да
Forced : Нет

Аудио
Идентификатор : 2
Формат : AAC
Формат/Информация : Advanced Audio Codec
Профиль формата : HE-AAC / LC
Настройки формата : Explicit
Идентификатор кодека : A_AAC-2
Продолжительность : 1 ч. 58 м.
Битрейт : 76,0 Кбит/сек
Каналы : 2 канала
Расположение каналов : Front: L R
Частота : 48,0 КГц / 24,0 КГц
Частота кадров : 23,438 кадра/сек (1024 SPF)
Метод сжатия : С потерями
Задержка видео : 31 мс.
Размер потока : 64,5 Мбайт (9%)
Default : Да
Forced : Нет

Текст #1
Идентификатор : 3
Формат : UTF-8
Идентификатор кодека : S_TEXT/UTF8
Идентификатор кодека/Информация : UTF-8 Plain Text
Продолжительность : 1 ч. 51 м.
Битрейт : 26 бит/сек
ElementCount : 508
Размер потока : 21,3 Кбайт (0%)
Язык : Russian
Default : Нет
Forced : Нет

Текст #2
Идентификатор : 4
Формат : UTF-8
Идентификатор кодека : S_TEXT/UTF8
Идентификатор кодека/Информация : UTF-8 Plain Text
Продолжительность : 1 ч. 58 м.
Битрейт : 25 бит/сек
ElementCount : 844
Размер потока : 22,5 Кбайт (0%)
Язык : English
Default : Нет
Forced : Нет

Меню
00:00:00.000 : en:00:00:00.000
00:07:15.226 : en:00:07:15.226
00:18:09.379 : en:00:18:09.379
00:29:15.670 : en:00:29:15.670
00:38:49.618 : en:00:38:49.618
00:46:13.395 : en:00:46:13.395
00:59:59.387 : en:00:59:59.387
01:11:03.676 : en:01:11:03.676
01:21:51.907 : en:01:21:51.907
01:31:33.946 : en:01:31:33.946
01:40:35.779 : en:01:40:35.779
01:53:19.292 : en:01:53:19.292


Трейлеры:









   Похожие торренты   Торрент   Размер 
В этой теме нет новых непрочитанных сообщений. Плохая партия / The Bad Batch (Ана Лили Амирпур) [2016, фантастика, мелодрама, BDRip] MVO / Фантастика

25 | 8

1.46 ГБ

В этой теме нет новых непрочитанных сообщений. Плохая партия / The Bad Batch (Ана Лили Амирпур) [2016, фантастика, мелодрама, WEBDLRip] MVO

13 | 0

1.37 ГБ

В этой теме нет новых непрочитанных сообщений. Плохая партия / The Bad Batch (2016) HDRip-AVC от ExKinoRay | L1

35 | 4

1.97 ГБ

В этой теме нет новых непрочитанных сообщений. Космос между нами / The Space Between Us (Питер Челсом) [2017, фантастика, драма, мелодрама, приключения, HDRip-AVC] DUB / Фантастика

22 | 0

2.28 ГБ

В этой теме нет новых непрочитанных сообщений. Плохая партия / The Bad Batch (2016) WEB-DLRip | L

651 | 37

1.37 ГБ

В этой теме нет новых непрочитанных сообщений. Плохая партия / The Bad Batch (2016) WEB-DLRip от MegaPeer | L1

24 | 0

747.4 МБ

В этой теме нет новых непрочитанных сообщений. Плохая партия / The Bad Batch (2016) WEB-DLRip-AVC от R.G.Resident | L1

37 | 39

1.9 ГБ




Вы не можете начинать темы
Вы не можете отвечать на сообщения
Вы не можете редактировать свои сообщения
Вы не можете удалять свои сообщения
Вы не можете добавлять вложения

Перейти:  
 Вход
ppkBB3cker v.2 © 2008-2014 @ PPK
[ Time : 0.038s | 15 Queries | GZIP : Off ]

cron