img image001 image001 image001 image001 image001 image001 image001 image001 image001 image001 image001 image001 image001 image001 image001

Planets Sun Sun Sun
Статистика раздачи
Автор: Снежана | Размер: 2.16 ГБ | Добавлен: 24 апр 2018
Раздают: 1    Качают: 0
Скачать торрент
Скачать торрент
Описание торрента

СообщениеДобавлено: 24 апр 2018 

Мой кровавый Валентин / My Bloody Valentine


Перевод: Авторский (одноголосый) М.Яроцкий, субтитры: есть (английские)
Формат: HDRip-AVC, MKV, H.264, AC3/AAC
Страна: США
Режиссер: Патрик Люссье
Жанр: ужасы, триллер
Продолжительность: 01:41:01
Год выпуска: 2009

В ролях: Дженсен Эклс, Джейми Кинг, Керр Смит, Бетси Ру, Эди Гатеги, Том Аткинс, Кевин Тай, Меган Бун, Карен Баумм, Джой де ла Пас

Описание: Том возвращается в родной городок, спустя 10 лет после ужасных событий, произошедших в День святого Валентина. С приездом молодого человека жители города начинают умирать от рук неизвестного маньяка, и подозрения сразу же падают на Тома. Вместе с девушкой Сарой, в которую он когда-то был влюблен, Том обязан найти неуловимого убийцу…



Видео: 1280x688 (1,85:1), 23,976 fps, MPEG4 AVC (x264), ~2343 kbps avg, 0.111 bit/pixel
Аудио #1: Русский: 48 kHz, AC3 Dolby Digital, 3/2 (L,C,R) + L R, LFE ch, 448 kbps [Авторский (одноголосый), Михаил Яроцкий]
Аудио #2: Английский: 48 kHz, AАC, 3/2 (L,C,R) + L R, LFE ch, 271 kbps [Оригинал]
Релиз-группа:

Доп. информация: перевод доступен благодаря: dikii. Работа со звуком: mihaildns.
Общее
Уникальный идентификатор : 240922985667496020214042844476175530156 (0xB5401448FECFAA43AA4C1AE2F11FB8AC)
Полное имя : D:\VIDEO\Мои переводы\My Bloody Valentine.2009.BDRip.720p.AVO.Kyberpunk.mkv
Формат : Matroska
Версия формата : Version 4 / Version 2
Размер файла : 2,16 Гбайт
Продолжительность : 1 ч. 41 м.
Общий поток : 3065 Кбит/сек
Название фильма : Мой кровавый валентин / My Bloody Valentine (2009г)
Дата кодирования : UTC 2018-02-14 09:04:00
Программа кодирования : mkvmerge v8.3.0 ('Over the Horizon') 64bit
Библиотека кодирования : libebml v1.3.1 + libmatroska v1.4.2
Обложка : Yes
Attachments : cover.jpg

Видео
Идентификатор : 1
Формат : AVC
Формат/Информация : Advanced Video Codec
Профиль формата :
Параметр CABAC формата : Да
Параметр RefFrames формата : 4 кадра
Идентификатор кодека : V_MPEG4/ISO/AVC
Продолжительность : 1 ч. 41 м.
Битрейт : 2343 Кбит/сек
Ширина : 1280 пикселей
Высота : 688 пикселей
Соотношение сторон : 1,85:1
Режим частоты кадров : Постоянный
Частота кадров : 23,976 (24000/1001) кадра/сек
Цветовое пространство : YUV
Субдискретизация насыщенности : 4:2:0
Битовая глубина : 8 бит
Тип развёртки : Прогрессивная
Бит/(Пиксели*Кадры) : 0.111
Размер потока : 1,65 Гбайт (76%)
Библиотека кодирования : x264 core 67 r1173M f6d3166
Настройки программы : cabac=1 / ref=4 / deblock=1:0:0 / analyse=0x3:0x133 / me=hex / subme=6 / psy_rd=1.0:0.0 / mixed_ref=1 / me_range=16 / chroma_me=1 / trellis=0 / 8x8dct=1 / cqm=0 / deadzone=21,11 / chroma_qp_offset=-2 / threads=3 / nr=0 / decimate=1 / mbaff=0 / bframes=3 / b_pyramid=1 / b_adapt=1 / b_bias=0 / direct=1 / wpredb=1 / keyint=250 / keyint_min=25 / scenecut=40 / rc=crf / crf=22.7 / qcomp=0.60 / qpmin=10 / qpmax=51 / qpstep=4 / ip_ratio=1.40 / pb_ratio=1.30 / aq=1:1.00
Язык : English
Default : Да
Forced : Нет

Аудио #1
Идентификатор : 2
Формат : AC-3
Формат/Информация : Audio Coding 3
Параметр Endianness формата : Big
Идентификатор кодека : A_AC3
Продолжительность : 1 ч. 41 м.
Вид битрейта : Постоянный
Битрейт : 448 Кбит/сек
Каналы : 6 каналов
Расположение каналов : Front: L C R, Side: L R, LFE
Частота : 48,0 КГц
Частота кадров : 31,250 кадров/сек (1536 SPF)
Битовая глубина : 16 бит
Метод сжатия : С потерями
Размер потока : 324 Мбайт (15%)
Заголовок : AVO М.Яроцкий
Язык : Russian
ServiceKind/String : Complete Main
Default : Да
Forced : Да

Аудио #2
Идентификатор : 3
Формат : AAC
Формат/Информация : Advanced Audio Codec
Профиль формата : LC
Идентификатор кодека : A_AAC
Продолжительность : 1 ч. 41 м.
Битрейт : 271 Кбит/сек
Каналы : 6 каналов
Расположение каналов : Front: L C R, Side: L R, LFE
Частота : 48,0 КГц
Частота кадров : 46,875 кадров/сек (1024 SPF)
Метод сжатия : С потерями
Размер потока : 196 Мбайт (9%)
Язык : English
Default : Нет
Forced : Нет

Текст
Идентификатор : 4
Формат : UTF-8
Идентификатор кодека : S_TEXT/UTF8
Идентификатор кодека/Информация : UTF-8 Plain Text
Продолжительность : 1 ч. 34 м.
Битрейт : 40 бит/сек
ElementCount : 1014
Размер потока : 27,8 Кбайт (0%)
Язык : English
Default : Нет
Forced : Нет

Меню
00:00:00.054 : en:00:00:00.054








   Похожие торренты   Торрент   Размер 
В этой теме нет новых непрочитанных сообщений. Мой кровавый Валентин / My Bloody Valentine (Патрик Люссье) [2009, ужасы, триллер, криминал, детектив, BDRip] DUB / Мистика

0 | 0

2.18 ГБ

В этой теме нет новых непрочитанных сообщений. Мой кровавый Валентин 3D / My Bloody Valentine (2009) Blu-ray 1080p | 3D-Video | D

1 | 2

36.5 ГБ

В этой теме нет новых непрочитанных сообщений. Трюк / Trick (Патрик Люссье) [2019, ужасы, WEBDLRip] MVO

0 | 0

1.37 ГБ

В этой теме нет новых непрочитанных сообщений. Кровавый ледник / Blutgletscher (Марвин Крен) [2013, ужасы, фантастика, триллер, детектив, HDRip-AVC] VO / Мистика

4 | 0

1.46 ГБ

В этой теме нет новых непрочитанных сообщений. Русская невеста / The Russian Bride (Майкл С. Ойеда) [2019, ужасы, триллер, HDRip-AVC] AVO

5 | 0

1.19 ГБ

В этой теме нет новых непрочитанных сообщений. Караульный пост 506 / GP506 (Су-чанг Куенг) [2008, ужасы, триллер, HDRip-AVC] AVO+VO

0 | 0

2.18 ГБ

В этой теме нет новых непрочитанных сообщений. Паучок / Itsy Bitsy (Мика Галло) [2019, ужасы, фэнтези, триллер, детектив, HDRip-AVC] AVO

1 | 0

1.46 ГБ




Вы не можете начинать темы
Вы не можете отвечать на сообщения
Вы не можете редактировать свои сообщения
Вы не можете удалять свои сообщения
Вы не можете добавлять вложения

Перейти:  
Контактная информация: rstracker[пёсик]yandex.ru
 Вход
ppkBB3cker v.2 © 2008-2014 @ PPK
[ Time : 0.017s | 18 Queries | GZIP : Off ]

cron