img image001 image001 image001 image001 image001 image001 image001 image001 image001 image001 image001 image001 image001 image001 image001 image001

Planets Sun Sun Sun
Статистика раздачи
Автор: Снежана | Размер: 2.18 ГБ | Добавлен: 15 май 2018
Раздают: 15    Качают: 0
Скачать торрент
Скачать торрент
Описание торрента

СообщениеДобавлено: 15 май 2018 

Техасская резня бензопилой: Кожаное лицо / Leatherface


Перевод: Профессиональный (полное дублирование) Лицензия
Cубтитры: Pусские, английские
Формат: BDRip-AVC, MKV, H.264, AC3
Страна: США
Режиссеры: Александр Бустильо, Жюльен Мори
Жанр: ужасы, триллер
Продолжительность: 01:27:42
Год выпуска: 2017
В ролях: Стивен Дорфф, Ванесса Грасс, Лорина Камбурова, Сэм Страйк, Лили Тейлор, Финн Джонс, Николь Эндрюс, Джеймс Блур, Сэм Коулман, Симона Левин, Кристофер Адамсон

Описание: При побеге из лечебницы для душевнобольных, четверо подростков похищают молодую медсестру. В погоню за ними пускается отряд полицейских во главе с техасским рейнджером Хэлом Хартменом, мстительным и беспощадным. Один из беглецов встает на полный трагедий и ужасов путь, который превратит его в маньяка — легенду по имени «Кожаное лицо».



Видео: 1156x484 (2,40:1), 23.976 fps, AVC MPEG-4 (x264), High@L4,1, ~ 2 662 Кбит/сек , 0.198 bit/pixel

Аудио#1: Русский: 48 kHz/16 bits, AC3 Dolby Digital, 3/2 (L,C,R,l,r) + LFE ch, ~ 448 kbps avg [Профессиональный (полное дублирование), Лицензия]
Аудио#2: Английский: 48 kHz/16 bits, AC3 Dolby Digital, 3/2 (L,C,R,l,r) + LFE ch, ~ 448 kbps avg [Оригинал]







Общее
Уникальный идентификатор : 190042869040861436794536486863363593717 (0x8EF8ECDB3CEA9510B9C47894071B55F5)
Полное имя : E:\Закачка-2\Tehasskaya.Reznya.Benzopiloy.Kozhanoye.Litco.2017.DUAL.BDRip.x264.-HELLYWOOD.mkv
Формат : Matroska
Версия формата : Version 4 / Version 2
Размер файла : 2,18 Гбайт
Продолжительность : 1 ч. 27 м.
Общий поток : 3558 Кбит/сек
Название фильма : Leatherface (2017)
Дата кодирования : UTC 2018-05-14 17:39:55
Программа кодирования : mkvmerge v5.9.0 ('On The Loose') built on Dec 15 2012 16:39:58
Библиотека кодирования : libebml v1.3.0 + libmatroska v1.4.0

Видео
Идентификатор : 1
Формат : AVC
Формат/Информация : Advanced Video Codec
Профиль формата :
Параметр CABAC формата : Да
Параметр ReFrames формата : 10 кадров
Идентификатор кодека : V_MPEG4/ISO/AVC
Продолжительность : 1 ч. 27 м.
Битрейт : 2662 Кбит/сек
Ширина : 1156 пикселей
Высота : 484 пикселя
Соотношение сторон : 2,40:1
Режим частоты кадров : Постоянный
Частота кадров : 23,976 (24000/1001) кадра/сек
Цветовое пространство : YUV
Субдискретизация насыщенности : 4:2:0
Битовая глубина : 8 бит
Тип развёртки : Прогрессивная
Бит/(Пиксели*Кадры) : 0.198
Размер потока : 1,59 Гбайт (73%)
Заголовок : potroks
Библиотека кодирования : x264 core 152 r2851M ba24899
Настройки программы : cabac=1 / ref=10 / deblock=1:-1:-1 / analyse=0x3:0x132 / me=umh / subme=11 / psy=1 / psy_rd=1.00:0.05 / mixed_ref=1 / me_range=48 / chroma_me=1 / trellis=2 / 8x8dct=1 / cqm=0 / deadzone=21,11 / fast_pskip=0 / chroma_qp_offset=-3 / threads=9 / lookahead_threads=2 / sliced_threads=0 / nr=0 / decimate=0 / interlaced=0 / bluray_compat=0 / constrained_intra=0 / bframes=12 / b_pyramid=2 / b_adapt=2 / b_bias=0 / direct=3 / weightb=1 / open_gop=0 / weightp=2 / keyint=240 / keyint_min=23 / scenecut=40 / intra_refresh=0 / rc_lookahead=0 / rc=2pass / mbtree=0 / bitrate=2662 / ratetol=1.0 / qcomp=0.70 / qpmin=0 / qpmax=69 / qpstep=4 / cplxblur=20.0 / qblur=0.5 / vbv_maxrate=50000 / vbv_bufsize=35714 / nal_hrd=none / filler=0 / ip_ratio=1.40 / pb_ratio=1.30 / aq=2:0.70
Язык : English
Default : Да
Forced : Нет

Аудио #1
Идентификатор : 2
Формат : AC-3
Формат/Информация : Audio Coding 3
Расширение режима : CM (complete main)
Параметр Endianness формата : Big
Идентификатор кодека : A_AC3
Продолжительность : 1 ч. 27 м.
Вид битрейта : Постоянный
Битрейт : 448 Кбит/сек
Каналы : 6 каналов
Расположение каналов : Front: L C R, Side: L R, LFE
Частота : 48,0 КГц
Частота кадров : 31,250 кадров/сек (1536 spf)
Метод сжатия : С потерями
Размер потока : 281 Мбайт (13%)
Заголовок : Dub | DD 5.1 @ 448 kbps - R5
Язык : Russian
Default : Да
Forced : Нет

Аудио #2
Идентификатор : 3
Формат : AC-3
Формат/Информация : Audio Coding 3
Расширение режима : CM (complete main)
Параметр Endianness формата : Big
Идентификатор кодека : A_AC3
Продолжительность : 1 ч. 27 м.
Вид битрейта : Постоянный
Битрейт : 448 Кбит/сек
Каналы : 6 каналов
Расположение каналов : Front: L C R, Side: L R, LFE
Частота : 48,0 КГц
Частота кадров : 31,250 кадров/сек (1536 spf)
Метод сжатия : С потерями
Размер потока : 281 Мбайт (13%)
Заголовок : Original | DD 5.1 @ 448 kbps
Язык : English
Default : Нет
Forced : Нет

Текст #1
Идентификатор : 4
Формат : UTF-8
Идентификатор кодека : S_TEXT/UTF8
Идентификатор кодека/Информация : UTF-8 Plain Text
Язык : Russian
Default : Нет
Forced : Нет

Текст #2
Идентификатор : 5
Формат : UTF-8
Идентификатор кодека : S_TEXT/UTF8
Идентификатор кодека/Информация : UTF-8 Plain Text
Заголовок : Full
Язык : English
Default : Нет
Forced : Нет

Текст #3
Идентификатор : 6
Формат : UTF-8
Идентификатор кодека : S_TEXT/UTF8
Идентификатор кодека/Информация : UTF-8 Plain Text
Заголовок : SDH
Язык : English
Default : Нет
Forced : Нет

Текст #4
Идентификатор : 7
Формат : UTF-8
Идентификатор кодека : S_TEXT/UTF8
Идентификатор кодека/Информация : UTF-8 Plain Text
Заголовок : SDH-Colored
Язык : English
Default : Нет
Forced : Нет

Меню
00:00:00.000 : :00:00:00.000
00:04:27.476 : :00:04:27.476
00:09:32.238 : :00:09:32.238
00:15:17.917 : :00:15:17.917
00:21:39.840 : :00:21:39.840
00:26:36.595 : :00:26:36.595
00:31:09.493 : :00:31:09.493
00:35:54.235 : :00:35:54.235
00:41:50.591 : :00:41:50.591
00:48:27.738 : :00:48:27.738
00:53:34.753 : :00:53:34.753
00:57:36.620 : :00:57:36.620
01:05:27.173 : :01:05:27.173
01:09:48.600 : :01:09:48.601
01:14:59.078 : :01:14:59.078
01:18:26.660 : :01:18:26.660






   Похожие торренты   Торрент   Размер 
В этой теме нет новых непрочитанных сообщений. Техасская резня бензопилой: Кожаное лицо / Leatherface (Александр Бустильо, Жюльен Мори) [2017, ужасы, триллер, BDRip] DUB / Мистика

11 | 0

1.46 ГБ

В этой теме нет новых непрочитанных сообщений. Техасская резня бензопилой: Кожаное лицо / Leatherface (Александр Бустильо, Жюльен Мори) [2017, ужасы, триллер, BDRip-AVC] DUB / Мистика

11 | 1

1.46 ГБ

В этой теме нет новых непрочитанных сообщений. Техасская резня бензопилой 3: Кожаное лицо / Leatherface: Texas Chainsaw Massacre III (Джефф Барр) [1990, ужасы, триллер, BDRip] 2хMVO+DVO

1 | 1

1.41 ГБ

В этой теме нет новых непрочитанных сообщений. Техасская резня бензопилой: Кожаное лицо / Leatherface (2017) BDRip-AVC от HELLYWOOD | iTunes

23 | 1

1.42 ГБ

В этой теме нет новых непрочитанных сообщений. Техасская резня бензопилой: Кожаное лицо / Leatherface (2017) BDRip от ExKinoRay | iTunes

61 | 2

1.42 ГБ

В этой теме нет новых непрочитанных сообщений. Техасская резня бензопилой: Кожаное лицо / Leatherface (2017) BDRip-AVC от HELLYWOOD | iTunes

52 | 4

2.14 ГБ

В этой теме нет новых непрочитанных сообщений. Техасская резня бензопилой: Кожаное лицо / Leatherface (2017) WEB-DLRip | L

2032 | 125

1.37 ГБ




Вы не можете начинать темы
Вы не можете отвечать на сообщения
Вы не можете редактировать свои сообщения
Вы не можете удалять свои сообщения
Вы не можете добавлять вложения

Перейти:  
 Вход
ppkBB3cker v.2 © 2008-2014 @ PPK
[ Time : 0.038s | 16 Queries | GZIP : Off ]

cron