img image001 image001 image001 image001 image001 image001 image001 image001 image001 image001 image001 image001 image001 image001 image001 image001

Planets Sun Sun Sun
Статистика раздачи
Автор: Снежана | Размер: 1.86 ГБ | Добавлен: 17 май 2018
Раздают: 7    Качают: 0
Скачать торрент
Скачать торрент
Описание торрента

СообщениеДобавлено: 17 май 2018 

Издалека / Desde allá / From Afar


Перевод 1: Любительский (одноголосый) [озвучка - RiN]
Перевод 2: Любительский (одноголосый) [озвучка - Анатолий Ашмарин, отдельным файлом]
Субтитры: Русские, Английские (внешние)
Формат: DVDRip, AVI, XviD, AC3
Страна: Венесуэла, Мексика
Режиссер: Лоренцо Вигас / Lorenzo Vigas
Жанр: драма, криминал, мелодрама
Продолжительность: 01:29:17
Год выпуска: 2015
В ролях: Альфредо Кастро (Армандо), Луис Сильва (Элдер), Джерико Монтилья, Катерина Кардозо, Хорхе Луис Боске, Греймер Акоста, Ауффер Камачо, Иван Пенья, Хоретсис Ибарра, Йеймар Перальта
Описание: Респектабельный 50-летний зубной протезист Армандо иногда приглашает за деньги к себе домой юношей, чтобы помастурбировать на их голые тела. В этот раз его внимание привлекает диковатый подросток-бандит Элдер из неблагополучного района Каракаса. Поначалу их отношения не складываются. Но когда Элдера избивают в жестокой драке, Армандо протягивает руку помощи парню. Постепенно юноша проникается чувствами к странному мужчине. Сближаются два одиночества - Армандо, у которого болит незаживающая рана, так как был отвергнут собственным отцом, и никому ненужный, выброшенный жизнью на улицу Элдер. Но надолго ли ?



Видео: 720x272 (2,647:1); 25 fps; XviD MPEG-4; ~1891 kbps; 0.386 bit/pixel
Аудио 1: Русский: 48 KHz, AC3 Dolby Digital, 6/0 (L C R, Side: L R, LFE) ch, ~ 448 Kbps [Любительский (одноголосый) RiN]
Аудио 2: Русский: 44 kHz, AC3 Dolby Digital, 2/0 (L,R ) ch, ~192 Kbps [Любительский (одноголосый) Анатолий Ашмарин]
Аудио 3: Испанский: 48 KHz, AC3 Dolby Digital, 6/0 (L C R, Side: L R, LFE) ch,~ 448 Kbps [Оригинал]


Венецианский кинофестиваль (Venice Film Festival), Венеция, Италия, 2015:
Победитель - Золотой лев (лучший фильм)

Lima Latin American Film Festival, Лима, Перу, 2016:
Победитель - Премия за лучшую режиссуру
Havana Film Festival, Гавана, Куба, 2015:
Победитель - Премия Гранд Корал (первый приз) Лоренцо Вигас
Thessaloniki Film Festival, Салоники, Греция, 2015:
Победитель - Лучший актёр (Альфредо Кастро), Лучший сценарий (Лоренцо Вигас)
Biarritz International Festival of Latin American Cinema, Биарриц, Франция, 2015:
Победитель - Лучший актёр (Луис Сильва)
Miami Film Festival, Майами, США, 2015:
Победитель - Лучший сценарий (Лоренцо Вигас)
San Sebastián International Film Festival, Сан-Себастьян, Испания, 2015:
Победитель - Премия «Горизонты» (актёр Луис Сильва)
The Platino Awards for Iberoamerican Cinema, Панама, Панама, 2017:
Победитель - Лучший актёр (Альфредо Кастро), Лучший дебют (Лоренцо Вигас)

Общее :
Формат : AVI
Формат/Информация : Audio Video Interleave
Размер файла : 1,47 Гбайт
Продолжительность : 1 ч. 29 м.
Общий поток : 2349 Кбит/сек
Программа кодирования : VirtualDubMod 1.5.10.3 | www.virtualdub-fr.org || (build 2550/release)
Библиотека кодирования : VirtualDubMod build 2550/release

Видео :
Идентификатор : 0
Формат : MPEG-4 Visual
Профиль формата : Advanced Simple@L5
Настройки формата : BVOP2 / Custom Matrix
Параметр BVOP формата : 2
Параметр QPel формата : Нет
Параметр GMC формата : Без точки перехода
Параметр матрицы формата : Выборочная
Идентификатор кодека : XVID
Идентификатор кодека/Подсказка : XviD
Продолжительность : 1 ч. 29 м.
Битрейт : 1891 Кбит/сек
Ширина : 720 пикселей
Высота : 272 пикселя
Соотношение сторон : 2,647
Частота кадров : 25,000 кадров/сек
Цветовое пространство : YUV
Субдискретизация насыщенности : 4:2:0
Битовая глубина : 8 бит
Тип развёртки : Прогрессивная
Метод сжатия : С потерями
Бит/(Пиксели*Кадры) : 0.386
Размер потока : 1,18 Гбайт (81%)
Библиотека кодирования : XviD 73

Аудио :
Идентификатор : 1
Формат : AC-3
Формат/Информация : Audio Coding 3
Идентификатор кодека : 2000
Продолжительность : 1 ч. 29 м.
Вид битрейта : Постоянный
Битрейт : 448 Кбит/сек
Каналы : 6 каналов
Расположение каналов : Front: L C R, Side: L R, LFE
Частота : 48,0 КГц
Частота кадров : 31,250 кадров/сек (1536 SPF)
Битовая глубина : 16 бит
Метод сжатия : С потерями
Задержка видео : 16 мс.
Размер потока : 286 Мбайт (19%)
Выравнивание : Разделение по промежуткам
Продолжительность промежутка : 40 мс. (1,00 видеокадр)
Время предзагрузки промежутка : 500 мс.
ServiceKind/String : Complete Main




Общее :
Формат : AC-3
Формат/Информация : Audio Coding 3
Размер файла : 123 Мбайт
Продолжительность : 1 ч. 29 м.
Режим общего битрейта : Постоянный
Общий поток : 192 Кбит/сек

Аудио :
Формат : AC-3
Формат/Информация : Audio Coding 3
Продолжительность : 1 ч. 29 м.
Вид битрейта : Постоянный
Битрейт : 192 Кбит/сек
Каналы : 2 канала
Расположение каналов : Front: L R
Частота : 44,1 КГц
Частота кадров : 28,711 кадров/сек (1536 SPF)
Битовая глубина : 16 бит
Метод сжатия : С потерями
Размер потока : 123 Мбайт
ServiceKind/String : Complete Main




Общее :
Формат : AC-3
Формат/Информация : Audio Coding 3
Размер файла : 286 Мбайт
Продолжительность : 1 ч. 29 м.
Режим общего битрейта : Постоянный
Общий поток : 448 Кбит/сек

Аудио :
Формат : AC-3
Формат/Информация : Audio Coding 3
Продолжительность : 1 ч. 29 м.
Вид битрейта : Постоянный
Битрейт : 448 Кбит/сек
Каналы : 6 каналов
Расположение каналов : Front: L C R, Side: L R, LFE
Частота : 48,0 КГц
Частота кадров : 31,250 кадров/сек (1536 SPF)
Битовая глубина : 16 бит
Метод сжатия : С потерями
Размер потока : 286 Мбайт (100%)
ServiceKind/String : Complete Main


















   Похожие торренты   Торрент   Размер 
В этой теме нет новых непрочитанных сообщений. Масло Лоренцо / Lorenzo's Oil (1992) HDTVRip 720p | P2, P2

40 | 22

4.18 ГБ

В этой теме нет новых непрочитанных сообщений. Обжора / L'outremangeur (Тьерри Бинисти / Thierry Binisti ) [2003, драма, мелодрама, криминал, детектив, DVDRip] MVO

2 | 0

1.45 ГБ

В этой теме нет новых непрочитанных сообщений. Фокус / Focus (Гленн Фикарра, Джон Рекуа) [2015, драма, мелодрама, комедия, криминал, LowHDRip] DUB

9 | 0

747.36 МБ

В этой теме нет новых непрочитанных сообщений. Паук, 1 сезон 1-6 серии из 6 / Edderkoppen [Web_Money] (Оле Кристиан Мадсен) [2000, триллер, драма, мелодрама, криминал, DVDRip-AVC, L1]

0 | 5

4.27 ГБ

В этой теме нет новых непрочитанных сообщений. Чёрный список, 3 сезон 1-13 серии из 22 / The Blacklist [LostFilm] (Джо Карнахан) [2015, триллер, драма, мелодрама, криминал, детектив, WEB-DLRip, P]

896 | 798

6.35 ГБ

В этой теме нет новых непрочитанных сообщений. Чёрный список, 3 сезон 1-11 серии из 22 / The Blacklist [LostFilm] (Джо Карнахан) [2015, триллер, драма, мелодрама, криминал, детектив, WEB-DLRip, P]

176 | 382

5.37 ГБ

В этой теме нет новых непрочитанных сообщений. Не женское дело (1-8 серии из 8) (Александр Калугин) [2013, драма, криминал, мелодрама, WEB-DLRip]

141 | 17

5.23 ГБ




Вы не можете начинать темы
Вы не можете отвечать на сообщения
Вы не можете редактировать свои сообщения
Вы не можете удалять свои сообщения
Вы не можете добавлять вложения

Перейти:  
 Вход
ppkBB3cker v.2 © 2008-2014 @ PPK
[ Time : 0.025s | 19 Queries | GZIP : Off ]

cron