img image001 image001 image001 image001 image001 image001 image001 image001 image001 image001 image001 image001 image001 image001 image001 image001

Planets Sun Sun Sun
Статистика раздачи
Автор: Снежана | Размер: 1.92 ГБ | Добавлен: 20 май 2018
Раздают: 27    Качают: 0
Скачать торрент
Скачать торрент
Описание торрента

СообщениеДобавлено: 20 май 2018 

История призрака / A Ghost Story


Перевод: Профессиональный (полное дублирование) Лицензия
Cубтитры: Русские, английские
Формат: BDRip-AVC, MKV, H264, AC3
Страна: США
Режиссер: Дэвид Лоури
Жанр: Драма, мелодрама, фэнтези
Продолжительность: 01:32:07
Год выпуска: 2017
В ролях: Кейси Аффлек, Руни Мара, МакКольм Сепас мл., Кеннейша Томпсон, Гроувер Колсон, Лизбет Карденас, Барлоу Джейкобс, Ричард Крауз, Дэггер Салазар, Соня Асеведо

Описание: Молодой музыкант попадает в автомобильную катастрофу. Вместо того, чтобы отправиться в иной мир, он решает остаться в родном доме. Проживая за разом историю дома, он встречается со всеми его владельцами.



Видео: 768x576 (4:3), 23,976 fps, AVC MPEG-4 (x264), , ~ 2 093 kbps avg, 0.197 bit/pixel

Аудио #1: Русский: 48 kHz/16-bit, AC3 Dolby Digital, 6 ch, ~ 448 kbps avg [Профессиональный (полное дублирование), Лицензия]
Аудио #2: Английский: 48 kHz/16-bit, AC3 Dolby Digital, 6 ch, ~ 448 kbps avg [Оригинал]






Общее
Уникальный идентификатор : 189994659547859383172466727875309888708 (0x8EEFA3F1E3AA45CDB833E369DA2E64C4)
Полное имя : D:ЗагрузкиA.Ghost.Story.2017.BDRip(AVC).OlLanDGroup.mkv
Формат : Matroska
Версия формата : Version 4 / Version 2
Размер файла : 1,92 Гбайт
Продолжительность : 1 ч. 32 м.
Общий поток : 2990 Кбит/сек
Название фильма : A.Ghost.Story.2017 #TorpedoUK#
Дата кодирования : UTC 2018-05-18 14:45:25
Программа кодирования : mkvmerge v6.5.0 ('Isn't she lovely') built on Oct 20 2013 12:50:05
Библиотека кодирования : libebml v1.3.0 + libmatroska v1.4.1

Видео
Идентификатор : 1
Формат : AVC
Формат/Информация : Advanced Video Codec
Профиль формата :
Параметр CABAC формата : Да
Параметр RefFrames формата : 10 кадров
Идентификатор кодека : V_MPEG4/ISO/AVC
Продолжительность : 1 ч. 32 м.
Битрейт : 2093 Кбит/сек
Ширина : 768 пикселей
Высота : 576 пикселей
Соотношение сторон : 4:3
Режим частоты кадров : Постоянный
Частота кадров : 23,976 (24000/1001) кадра/сек
Цветовое пространство : YUV
Субдискретизация насыщенности : 4:2:0
Битовая глубина : 8 бит
Тип развёртки : Прогрессивная
Бит/(Пиксели*Кадры) : 0.197
Размер потока : 1,31 Гбайт (68%)
Библиотека кодирования : x264 core 146 r2538 121396c
Настройки программы : cabac=1 / ref=10 / deblock=1:-2:-3 / analyse=0x3:0x133 / me=umh / subme=11 / psy=1 / psy_rd=0.95:0.10 / mixed_ref=1 / me_range=48 / chroma_me=1 / trellis=2 / 8x8dct=1 / cqm=0 / deadzone=21,11 / fast_pskip=1 / chroma_qp_offset=-3 / threads=6 / lookahead_threads=1 / sliced_threads=0 / nr=0 / decimate=1 / interlaced=0 / bluray_compat=0 / constrained_intra=0 / bframes=10 / b_pyramid=2 / b_adapt=2 / b_bias=0 / direct=3 / weightb=1 / open_gop=0 / weightp=2 / keyint=240 / keyint_min=23 / scenecut=40 / intra_refresh=0 / rc_lookahead=40 / rc=2pass / mbtree=0 / bitrate=2093 / ratetol=1.0 / qcomp=0.60 / qpmin=0 / qpmax=69 / qpstep=4 / cplxblur=20.0 / qblur=0.5 / vbv_maxrate=50000 / vbv_bufsize=62500 / nal_hrd=none / filler=0 / ip_ratio=1.40 / pb_ratio=1.30 / aq=1:1.00
Язык : English
Default : Да
Forced : Нет

Аудио #1
Идентификатор : 2
Формат : AC-3
Формат/Информация : Audio Coding 3
Расширение режима : CM (complete main)
Параметр Endianness формата : Big
Идентификатор кодека : A_AC3
Продолжительность : 1 ч. 32 м.
Вид битрейта : Постоянный
Битрейт : 448 Кбит/сек
Каналы : 6 каналов
Расположение каналов : Front: L C R, Side: L R, LFE
Частота : 48,0 КГц
Частота кадров : 31,250 кадров/сек (1536 spf)
Метод сжатия : С потерями
Размер потока : 295 Мбайт (15%)
Заголовок : Лицензия
Язык : Russian
Default : Да
Forced : Нет

Аудио #2
Идентификатор : 3
Формат : AC-3
Формат/Информация : Audio Coding 3
Расширение режима : CM (complete main)
Параметр Endianness формата : Big
Идентификатор кодека : A_AC3
Продолжительность : 1 ч. 32 м.
Вид битрейта : Постоянный
Битрейт : 448 Кбит/сек
Каналы : 6 каналов
Расположение каналов : Front: L C R, Side: L R, LFE
Частота : 48,0 КГц
Частота кадров : 31,250 кадров/сек (1536 spf)
Метод сжатия : С потерями
Размер потока : 295 Мбайт (15%)
Заголовок : Original
Язык : English
Default : Нет
Forced : Нет

Текст #1
Идентификатор : 4
Формат : UTF-8
Идентификатор кодека : S_TEXT/UTF8
Идентификатор кодека/Информация : UTF-8 Plain Text
Заголовок : Forced
Язык : Russian
Default : Да
Forced : Нет

Текст #2
Идентификатор : 5
Формат : UTF-8
Идентификатор кодека : S_TEXT/UTF8
Идентификатор кодека/Информация : UTF-8 Plain Text
Заголовок : Full
Язык : Russian
Default : Нет
Forced : Нет

Текст #3
Идентификатор : 6
Формат : UTF-8
Идентификатор кодека : S_TEXT/UTF8
Идентификатор кодека/Информация : UTF-8 Plain Text
Заголовок : Full
Язык : English
Default : Нет
Forced : Нет

Текст #4
Идентификатор : 7
Формат : UTF-8
Идентификатор кодека : S_TEXT/UTF8
Идентификатор кодека/Информация : UTF-8 Plain Text
Заголовок : SDH
Язык : English
Default : Нет
Forced : Нет

Меню
00:00:00.000 : en:Chapter 01
00:06:12.622 : en:Chapter 02
00:11:27.103 : en:Chapter 03
00:16:09.802 : en:Chapter 04
00:22:37.397 : en:Chapter 05
00:26:38.221 : en:Chapter 06
00:33:45.982 : en:Chapter 07
00:38:27.013 : en:Chapter 08
00:43:49.668 : en:Chapter 09
00:49:56.702 : en:Chapter 10
00:56:13.870 : en:Chapter 11
01:04:44.630 : en:Chapter 12
01:08:55.840 : en:Chapter 13
01:11:44.717 : en:Chapter 14
01:18:37.963 : en:Chapter 15
01:23:09.567 : en:Chapter 16





   Похожие торренты   Торрент   Размер 
В этой теме нет новых непрочитанных сообщений. История призрака / A Ghost Story (Дэвид Лоури) [2017, Драма, мелодрама, фэнтези, BDRip] DUB / Драмы

27 | 0

1.46 ГБ

В этой теме нет новых непрочитанных сообщений. История призрака / A Ghost Story (Дэвид Лоури) [2017, Драма, мелодрама, фэнтези, BDRip] DUB / Фантастика

28 | 0

1.42 ГБ

В этой теме нет новых непрочитанных сообщений. История призрака / A Ghost Story (Дэвид Лоури) [2017, Драма, мелодрама, фэнтези, BDRip-AVC] DUB / Фантастика

28 | 2

1.88 ГБ

В этой теме нет новых непрочитанных сообщений. История призрака / A Ghost Story (Дэвид Лоури) [2017, Драма, мелодрама, фэнтези, HDRip] DUB / Фантастика

18 | 0

1.51 ГБ

В этой теме нет новых непрочитанных сообщений. История призрака / A Ghost Story (2017) BDRip 720p | L

169 | 13

2.73 ГБ

В этой теме нет новых непрочитанных сообщений. История призрака / A Ghost Story (2017) HDRip | L

58 | 1

1.37 ГБ

В этой теме нет новых непрочитанных сообщений. Невеста призрака / The Ghost Bride (Чито С. Роньо) [2017, ужасы, фэнтези, триллер, драма, детектив, WEBDLRip] MVO

4 | 0

1.46 ГБ




Вы не можете начинать темы
Вы не можете отвечать на сообщения
Вы не можете редактировать свои сообщения
Вы не можете удалять свои сообщения
Вы не можете добавлять вложения

Перейти:  
 Вход
ppkBB3cker v.2 © 2008-2014 @ PPK
[ Time : 0.054s | 19 Queries | GZIP : Off ]

cron