img image001 image001 image001 image001 image001 image001 image001 image001 image001 image001 image001 image001 image001 image001 image001 image001

Planets Sun Sun Sun
Статистика раздачи
Автор: Снежана | Размер: 2.18 ГБ | Добавлен: 21 май 2018
Раздают: 6    Качают: 0
Скачать торрент
Скачать торрент
Описание торрента

СообщениеДобавлено: 21 май 2018 

Цвета / Colors

Перевод: Профессиональный (многоголосый, закадровый) 5 канал
Субтитры: Отсутствуют
Формат: BDRip-AVC, MKV, H.264, AC3
Страна: США
Режиссер: Деннис Хоппер
Жанр: боевик, триллер, драма, мелодрама, криминал
Продолжительность: 01:59:51
Год выпуска: 1988

В ролях: Шон Пенн, Роберт Дювалл, Мария Кончита Алонсо, Рэнди Брукс, Гранд Л. Буш, Дон Чидл, Жерардо Мейя, Гленн Пламмер, Руди Рамос, Сай Ричардсон

Описание: Лос-Анджелес захлестнула волна преступности. В городе орудуют сотни преступных группировок, в которых состоит более 70000 человек. Ежедневно в бандитских разборках гибнут мирные жители. Такое положение вещей не устраивает двух «горячих» полицейских.
Один из них — умудренный опытом и чрезвычайно жестокий, второй — молодой, но с очень крутым нравом. Вместе они пытаются остановить насилие на улицах города. Постепенно ситуация выходит из-под контроля, и Лос-Анджелес превращается в кровавое поле боя. И без того напряженное положение осложняется любовной интригой, возникшей между молодым полицейским и прекрасной девушкой, состоящей в одной из банд.
Но смогут ли они быть вместе; ведь в мире, где правит жестокость, за ошибки приходится платить кровью.




Видео: 1012x548 (1.85:1), 23.976 fps, AVC MPEG-4 (H.264), ~2410 kbps, 0.181 bit/pixel
Аудио: 48 kHz, AC3 Dolby Digital, 2 ch, ~192 kbps

Формат : Matroska
Версия формата : Version 4 / Version 2
Размер файла : 2,18 Гбайт
Продолжительность : 1 ч. 59 м.
Общий поток : 2602 кбит/сек
Программа кодирования : mkvmerge v8.2.0 ('World of Adventure') 64bit
Библиотека кодирования : libebml v1.3.1 + libmatroska v1.4.2

Видео
Идентификатор : 1
Формат : AVC
Формат/Информация : Advanced Video Codec
Профиль формата :
Параметр CABAC формата : Да
Параметр ReFrames формата : 10 кадров
Идентификатор кодека : V_MPEG4/ISO/AVC
Продолжительность : 1 ч. 59 м.
Битрейт : 2410 кбит/сек
Ширина : 1012 пикселей
Высота : 548 пикселей
Соотношение сторон : 1,85:1
Режим частоты кадров : Постоянный
Частота кадров : 23,976 (24000/1001) кадра/сек
Цветовое пространство : YUV
Субдискретизация насыщенности : 4:2:0
Битовая глубина : 8 бит
Тип развёртки : Прогрессивная
Бит/(Пиксели*Кадры) : 0.181
Размер потока : 2,03 Гбайт (96%)
Библиотека кодирования : x264 core 146 r2538 121396c
Настройки программы : cabac=1 / ref=10 / deblock=1:-3:-3 / analyse=0x3:0x113 / me=umh / subme=10 / psy=1 / psy_rd=1.00:0.15 / mixed_ref=1 / me_range=32 / chroma_me=1 / trellis=2 / 8x8dct=1 / cqm=0 / deadzone=21,11 / fast_pskip=1 / chroma_qp_offset=-3 / threads=6 / lookahead_threads=1 / sliced_threads=0 / nr=0 / decimate=1 / interlaced=0 / bluray_compat=0 / constrained_intra=0 / bframes=12 / b_pyramid=2 / b_adapt=2 / b_bias=0 / direct=1 / weightb=1 / open_gop=0 / weightp=2 / keyint=230 / keyint_min=23 / scenecut=40 / intra_refresh=0 / rc_lookahead=40 / rc=crf / mbtree=0 / crf=19.4 / qcomp=0.60 / qpmin=0 / qpmax=69 / qpstep=4 / vbv_maxrate=40000 / vbv_bufsize=50000 / crf_max=0.0 / nal_hrd=none / filler=0 / ip_ratio=1.40 / pb_ratio=1.30 / aq=1:1.00
Язык : English
Default : Да
Forced : Нет

Аудио
Идентификатор : 2
Формат : AC-3
Формат/Информация : Audio Coding 3
Расширение режима : CM (complete main)
Параметр Endianness формата : Big
Идентификатор кодека : A_AC3
Продолжительность : 1 ч. 59 м.
Вид битрейта : Постоянный
Битрейт : 192 Кбит/сек
Каналы : 2 канала
Расположение каналов : Front: L R
Частота : 48,0 КГц
Частота кадров : 31,250 кадров/сек (1536 spf)
Метод сжатия : С потерями
Размер потока : 165 Мбайт (4%)
Заголовок : MVO (Спб, 5 канал)
Язык : Russian
Default : Да
Forced : Нет












   Похожие торренты   Торрент   Размер 
В этой теме нет новых непрочитанных сообщений. Цвета / Colors (Деннис Хоппер) [1988, боевик, триллер, драма, мелодрама, криминал, BDRip-AVC] MVO / Боевики /Action

4 | 0

745.63 МБ

В этой теме нет новых непрочитанных сообщений. Цвета / Colors (Деннис Хоппер) [1988, боевик, триллер, драма, мелодрама, криминал, HDRip] MVO / Боевики /Action

2 | 0

1.45 ГБ

В этой теме нет новых непрочитанных сообщений. Механик: Воскрешение / Mechanic: Resurrection (Деннис Ганзель) [2016, боевик, триллер, криминал, приключения, BDRip] DUB+MVO+AVO / Боевики /Action

7 | 0

2.19 ГБ

В этой теме нет новых непрочитанных сообщений. Западня / Entrapment (Джон Эмиел) [1999, боевик, триллер, мелодрама, криминал, BDRip] DUB / Боевики /Action

6 | 0

1.46 ГБ

В этой теме нет новых непрочитанных сообщений. Мистер и миссис Смит / Mr. & Mrs. Smith (Даг Лайман) [2005, боевик, триллер, мелодрама, комедия, криминал, BDRip] DUB / Боевики /Action

23 | 2

1.46 ГБ

В этой теме нет новых непрочитанных сообщений. Каратель / The Punisher (Джонатан Хенсли) [2004, боевик, триллер, драма, криминал, BDRip] DUB / Боевики /Action

9 | 1

2.18 ГБ

В этой теме нет новых непрочитанных сообщений. Камера 211 / Celda 211 (Даниэль Монсон) [2009, боевик, триллер, драма, криминал, BDRip-AVC] DUB+AVO / Боевики /Action

5 | 0

2.25 ГБ




Вы не можете начинать темы
Вы не можете отвечать на сообщения
Вы не можете редактировать свои сообщения
Вы не можете удалять свои сообщения
Вы не можете добавлять вложения

Перейти:  
 Вход
ppkBB3cker v.2 © 2008-2014 @ PPK
[ Time : 0.047s | 18 Queries | GZIP : Off ]

cron