img image001 image001 image001 image001 image001 image001 image001 image001 image001 image001 image001 image001 image001 image001 image001 image001

Planets Sun Sun Sun
Статистика раздачи
Автор: Снежана | Размер: 2.9 ГБ | Добавлен: 21 май 2018
Раздают: 6    Качают: 0
Скачать торрент
Скачать торрент
Описание торрента

СообщениеДобавлено: 21 май 2018 

Сорвать маску / The Naked Face
Оценка релиза: 

Перевод: Профессиональный (многоголосый закадровый), субтитры: русские (внутренние, отключаемые)
Формат: BDRip-AVC, MKV, H.264, AC3
Страна: США
Режиссер: Брайан Форбс
Жанр: триллер, детектив, боевик
Продолжительность: 01:45:03
Год выпуска: 1984
В ролях: Роджер Мур, Род Стайгер, Эллиотт Гулд, Арт Карни, Энн Арчер, Дэвид Хедисон, Дианна Данаган, Рон Паради, Дик Солленбергер, Джеймс Спинкс
Описание:
Доктор Джадд Стивенс - практикующий психотерапевт. После очередного сеанса одного из его пациентов находят убитым. Полиция подозревает в случившемся Стивенса, а между тем за самим доктором начинает жестокую охоту таинственная преступная сила. Кто же тот загадочный псих, который пытается сжить его со свету и пустить под откос карьеру? Сорвать со злодея маску предстоит самому доктору Стивенсу.
По роману Сидни Шелдон.




Видео: 1280x688 (1.86:1) 23.976 fps, MPEG4 AVC (x264) , 3500 kbps avg, 0.166 bit/pixel
Аудио #1: Русский: 48.0 kHz, AC3 Dolby Digital, 2/0 (L,R) ch, ~192 kbps [профессиональный (многоголосый, закадровый)]
Аудио #2: Английский: 48.0 kHz, AC3 Dolby Digital, 2/0 (L,R) ch, ~256 kbps [Оригинал]

Доп. информация: субтитры на несколько секунд отсутствующего перевода на 28-ой минуте

General
Complete name : E:\Лицо_без_маски(Сорвать_маску).1984.BDRip-AVC.2,9gb.S_Rip.mkv
Format : Matroska
File size : 2.90 GiB
Duration : 1h 45mn
Overall bit rate : 3 949 Kbps
Encoded date : UTC 2018-01-22 19:06:15
Writing application : mkvmerge v6.9.1 ('Blue Panther') 32bit built on Apr 18 2014 18:15:44
Writing library : libebml v1.3.0 + libmatroska v1.4.1

Video
ID : 1
Format : AVC
Format/Info : Advanced Video Codec
Format profile :
Format settings, CABAC : Yes
Format settings, ReFrames : 7 frames
Codec ID : V_MPEG4/ISO/AVC
Duration : 1h 45mn
Bit rate : 3 500 Kbps
Width : 1 280 pixels
Height : 688 pixels
Display aspect ratio : 1.860
Frame rate : 23.976 fps
Color space : YUV
Chroma subsampling : 4:2:0
Bit depth : 8 bits
Scan type : Progressive
Bits/(Pixel*Frame) : 0.166
Stream size : 2.51 GiB (87%)
Title : The Naked Face 1984 Rip from Serjinho777
Writing library : x264 core 148 r2638 7599210
Encoding settings : cabac=1 / ref=7 / deblock=1:-1:-1 / analyse=0x3:0x111 / me=umh / subme=9 / psy=1 / psy_rd=1.00:0.20 / mixed_ref=1 / me_range=16 / chroma_me=1 / trellis=2 / 8x8dct=1 / cqm=0 / deadzone=21,11 / fast_pskip=0 / chroma_qp_offset=-3 / threads=6 / lookahead_threads=1 / sliced_threads=0 / nr=0 / decimate=0 / interlaced=0 / bluray_compat=0 / constrained_intra=0 / bframes=6 / b_pyramid=2 / b_adapt=2 / b_bias=0 / direct=3 / weightb=1 / open_gop=0 / weightp=2 / keyint=240 / keyint_min=23 / scenecut=40 / intra_refresh=0 / rc_lookahead=60 / rc=2pass / mbtree=1 / bitrate=3500 / ratetol=1.0 / qcomp=0.60 / qpmin=0 / qpmax=69 / qpstep=4 / cplxblur=20.0 / qblur=0.5 / vbv_maxrate=14000 / vbv_bufsize=14000 / nal_hrd=none / filler=0 / ip_ratio=1.40 / aq=2:1.00

Audio #1
ID : 2
Format : AC-3
Format/Info : Audio Coding 3
Mode extension : CM (complete main)
Codec ID : A_AC3
Duration : 1h 45mn
Bit rate mode : Constant
Bit rate : 192 Kbps
Channel(s) : 2 channels
Channel positions : Front: L R
Sampling rate : 48.0 KHz
Bit depth : 16 bits
Stream size : 144 MiB (5%)
Title : MVO RUS
Language : Russian

Audio #2
ID : 3
Format : AC-3
Format/Info : Audio Coding 3
Mode extension : CM (complete main)
Codec ID : A_AC3
Duration : 1h 45mn
Bit rate mode : Constant
Bit rate : 256 Kbps
Channel(s) : 2 channels
Channel positions : Front: L R
Sampling rate : 48.0 KHz
Bit depth : 16 bits
Stream size : 192 MiB (6%)
Title : English original
Language : English

Text
ID : 4
Format : UTF-8
Codec ID : S_TEXT/UTF8
Codec ID/Info : UTF-8 Plain Text
Title : SUB RUS Forced from Serjinho777
Language : Russian



















   Похожие торренты   Торрент   Размер 
В этой теме нет новых непрочитанных сообщений. Сорвать маску / The Naked Face (1984) DVDRip от Pshichko66

11 | 0

1.56 ГБ

В этой теме нет новых непрочитанных сообщений. Вспышка / Flashpoint (Уильям Тэннен) [1984, триллер, драма, боевик, криминал, детектив, DVDRip-AVC] DUB

0 | 4

1.98 ГБ

В этой теме нет новых непрочитанных сообщений. Страсть / (Брайан Де Пальма) [2012, триллер, драма, криминал, детектив , BDRip] MVO(rus)+DVO(rus)

39 | 0

2.06 ГБ

В этой теме нет новых непрочитанных сообщений. Глаза змеи / Snake Eyes (Брайан Де Пальма) [1998, триллер, криминал, детектив, BDRip] DUB

0 | 0

1.46 ГБ

В этой теме нет новых непрочитанных сообщений. Адреналин [Расширенная версия] / Crank [Unrated] (Марк Невелдайн, Брайан Тейлор) [2006, боевик, триллер, криминал, BDRip-AVC] DUB

6 | 0

746.02 МБ

В этой теме нет новых непрочитанных сообщений. Олдбой / Oldboy (Спайк Ли) [2013, триллер, драма, детектив, боевик, BDRip] DUB

5 | 0

1.46 ГБ

В этой теме нет новых непрочитанных сообщений. Озеро, 1 сезон 1-6 серия из 6 / The Loch [ColdFilm] (Брайан Келли, Цилла Уэр) [2017, триллер, драма, криминал, детектив, HDTVRip, L2]

8 | 0

1.4 ГБ




Вы не можете начинать темы
Вы не можете отвечать на сообщения
Вы не можете редактировать свои сообщения
Вы не можете удалять свои сообщения
Вы не можете добавлять вложения

Перейти:  
 Вход
ppkBB3cker v.2 © 2008-2014 @ PPK
[ Time : 0.027s | 18 Queries | GZIP : Off ]

cron