img image001 image001 image001 image001 image001 image001 image001 image001 image001 image001 image001 image001 image001 image001 image001 image001

Planets Sun Sun Sun
Статистика раздачи
Автор: Снежана | Размер: 1.46 ГБ | Добавлен: 22 май 2018
Раздают: 17    Качают: 0
Скачать торрент
Скачать торрент
Описание торрента

СообщениеДобавлено: 22 май 2018 

Обратный отсчёт: Перезапуск / Fatal Countdown: Reset / Zhi ming dao shu


Перевод: Любительский (многоголосый закадровый) [Den904, DeadSno и Izanami]
Субтитры: Kитайские (хардсаб)
Формат: WEBRip-AVC, MKV, H.264, AC3
Страна: Китай, Корея Южная
Режиссер: Чхан
Жанр: фантастика, боевик
Продолжительность: 01:45:44
Год выпуска: 2017
В ролях: Ян Ми, Уоллес Хо, Цзинь Шицзя, Лю Чан, Чжан Ихань, Ким Хи-вон

Описание: У умницы и красавицы Ся Тянь (Ян Ми) есть два смысла жизни: первый – это ее обожаемый сын Лифу (Чжан Ихань), которого она растит в одиночку, а второй – создание машины времени на основе так называемых кротовых нор, исследованию которых она посвятила последние 8 лет своей жизни. Все это в одночасье рушится, когда мрачный злодей Цуй Ху (Уоллес Хо) похищает малыша и в обмен на его жизнь требует у отчаявшейся матери данные ее последних исследований. Чтобы спасти сына, Ся Тянь возвращается на 2 часа в прошлое, где встречает две другие версии себя...



Видео: 1024x432 (2.40:1), 24 fps, AVC MPEG-4 (H.264), ~1747 kbps, 0.165 bit/pixel
Аудио: 48 kHz, AC3 Dolby Digital, 2/0 (L,R) ch, ~192 kbps

РЕКЛАМЫ НЕТ !

General
Unique ID : 303678261576791315595561862801920722387 (0xE4764E452CB0CEEF552844CA844985D3)
Complete name : C:\Users\Юрик\Desktop\Обратный отcчет_Перезапуск_[tfile.ru].mkv
Format : Matroska
Format version : Version 2
File size : 1.46 GiB
Duration : 1 h 45 min
Overall bit rate : 1 978 kb/s
Writing application : Lavf55.12.100
Writing library : Lavf55.12.100

Video
ID : 2
Format : AVC
Format/Info : Advanced Video Codec
Format profile :
Format settings, CABAC : Yes
Format settings, RefFrames : 2 frames
Codec ID : V_MPEG4/ISO/AVC
Duration : 1 h 45 min
Bit rate : 1 747 kb/s
Width : 1 024 pixels
Height : 432 pixels
Display aspect ratio : 2.40:1
Frame rate mode : Constant
Frame rate : 24.000 FPS
Color space : YUV
Chroma subsampling : 4:2:0
Bit depth : 8 bits
Scan type : Progressive
Bits/(Pixel*Frame) : 0.165
Stream size : 1.29 GiB (88%)
Default : Yes
Forced : No

Audio
ID : 1
Format : AC-3
Format/Info : Audio Coding 3
Format settings, Endianness : Big
Codec ID : A_AC3
Duration : 1 h 45 min
Bit rate mode : Constant
Bit rate : 192 kb/s
Channel(s) : 2 channels
Channel positions : Front: L R
Sampling rate : 48.0 kHz
Frame rate : 31.250 FPS (1536 SPF)
Bit depth : 16 bits
Compression mode : Lossy
Stream size : 145 MiB (10%)
Service kind : Complete Main
Default : Yes
Forced : No















   Похожие торренты   Торрент   Размер 
В этой теме нет новых непрочитанных сообщений. Обратный отсчёт: Перезапуск / Reset / Zhi ming dao shu (2017) WEBRip-AVC от k.e.n | L, L1

11 | 0

2.18 ГБ

В этой теме нет новых непрочитанных сообщений. Обратный отсчёт: Перезапуск / Reset / Zhi ming dao shu (2017) WEBRip 2160p | L1

174 | 19

4.1 ГБ

В этой теме нет новых непрочитанных сообщений. Перезагрузка: обратный отсчёт / Reset (2017) WEBRip 1080p

649 | 45

1.59 ГБ

В этой теме нет новых непрочитанных сообщений. Обратный отсчет / Countdown (2012) DVDRip | L1

122 | 30

1.36 ГБ

В этой теме нет новых непрочитанных сообщений. Айк: Обратный отсчет / Ike: Countdown to D-Day (2004) WEB-DLRip | A

0 | 5

1.46 ГБ

В этой теме нет новых непрочитанных сообщений. Обратный отсчет / Countdown (1967) DVDRip

0 | 3

1.37 ГБ

В этой теме нет новых непрочитанных сообщений. 6:42 / Обратный отсчёт / Countdown (2016) BDRip | L

2095 | 113

1.45 ГБ




Вы не можете начинать темы
Вы не можете отвечать на сообщения
Вы не можете редактировать свои сообщения
Вы не можете удалять свои сообщения
Вы не можете добавлять вложения

Перейти:  
 Вход
ppkBB3cker v.2 © 2008-2014 @ PPK
[ Time : 0.043s | 18 Queries | GZIP : Off ]

cron