img image001 image001 image001 image001 image001 image001 image001 image001 image001 image001 image001 image001 image001 image001 image001 image001

Planets Sun Sun Sun
Статистика раздачи
Автор: Снежана | Размер: 1.45 ГБ | Добавлен: 22 май 2018
Раздают: 13    Качают: 4
Скачать торрент
Скачать торрент
Описание торрента

СообщениеДобавлено: 22 май 2018 

В ловушке времени / Timeline


Перевод: Профессиональный (полное дублирование), субтитры: отсутствуют
Формат: HDRip-AVC, MKV, H.264, AC3
Страна: США
Режиссер: Ричард Доннер
Жанр: фантастика, фэнтези, боевик, приключения
Продолжительность: 01:51:11
Год выпуска: 2003
В ролях: Пол Уокер, Фрэнсис О’Коннор, Джерард Батлер, Билли Коннолли, Дэвид Тьюлис, Анна Фрил, Нил МакДонаф, Мэтт Крэвен, Итэн Эмбри, Майкл Шин, Ламбер Вильсон, Мартон Чокаш, Россиф Сазерленд, Стив Кэхэн, Давид Ла Эй, Ричард Биман, Патрик Сабонгуй, Майк Шуте, Джэйсон Мэрилл, Власта Врана, Марк Оливье, Джерри Мосс, Дэнни Бланко, Пол Туэрпе, Кэс Анвар, Стефани Биддл, Луис Деллар, Линн Эдамс, Кристиан Тессьер, Милли Трессьера, Эми Слоун, Райан Вулфф, Кристиан Пол, Мэриэн Колье

Описание: Группа археологов неожиданно узнает об опасном эксперименте по перемещению во времени, секретно проведенном одним из финансовых магнатов. Их возмущение возрастает, когда оказывается, что в результате эксперимента их любимый профессор попал в средневековую Францию! Уверенные в том, что их знаний о средневековой Европе будет достаточно, чтобы вернуть профессора живым и невредимым, они перемещаются в XIV век и попадают в гущу событий, основное из которых война. Смогут ли они спасти профессора в этом новом незнакомом мире?



Видео: 1024x432 (2.40:1), 25 fps, AVC MPEG-4 (H.264), ~1642 kbps, 0.148 bit/pixel
Аудио: 48 kHz, AC3 Dolby Digital, 2/0 (L,R) ch, ~192 kbps
General
Unique ID : 186301251003555119373980143497681405117 (0x8C2850D82AE415E2847ACF00544984BD)
Complete name : C:\Users\Юрик\Desktop\Timeline.2003.HDRip-AVC _[tfile.ru].mkv
Format : Matroska
Format version : Version 2
File size : 1.45 GiB
Duration : 1 h 51 min
Overall bit rate : 1 871 kb/s
Writing application : Lavf55.12.100
Writing library : Lavf55.12.100

Video
ID : 2
Format : AVC
Format/Info : Advanced Video Codec
Format profile :
Format settings, CABAC : Yes
Format settings, RefFrames : 2 frames
Codec ID : V_MPEG4/ISO/AVC
Duration : 1 h 51 min
Bit rate : 1 642 kb/s
Width : 1 024 pixels
Height : 432 pixels
Display aspect ratio : 2.40:1
Frame rate mode : Constant
Frame rate : 25.000 FPS
Color space : YUV
Chroma subsampling : 4:2:0
Bit depth : 8 bits
Scan type : Progressive
Bits/(Pixel*Frame) : 0.148
Stream size : 1.28 GiB (88%)
Language : English
Default : Yes
Forced : No
Statistics Tags Issue : mkvmerge v7.4.0 ('Circles') 64bit built on Dec 12 2014 12:19:56 2018-05-22 04:11:36 / Lavf55.12.100
FromStats_BitRate : 2131184
FromStats_Duration : 01:51:11.840000000
FromStats_FrameCount : 166796
FromStats_StreamSize : 1777365277

Audio
ID : 1
Format : AC-3
Format/Info : Audio Coding 3
Format settings, Endianness : Big
Codec ID : A_AC3
Duration : 1 h 51 min
Bit rate mode : Constant
Bit rate : 192 kb/s
Channel(s) : 2 channels
Channel positions : Front: L R
Sampling rate : 48.0 kHz
Frame rate : 31.250 FPS (1536 SPF)
Bit depth : 16 bits
Compression mode : Lossy
Stream size : 153 MiB (10%)
Service kind : Complete Main
Default : Yes
Forced : No
Statistics Tags Issue : mkvmerge v7.4.0 ('Circles') 64bit built on Dec 12 2014 12:19:56 2018-05-22 04:11:36 / Lavf55.12.100
FromStats_BitRate : 192000
FromStats_Duration : 01:51:11.904000000
FromStats_FrameCount : 208497
FromStats_StreamSize : 160125696



















   Похожие торренты   Торрент   Размер 
В этой теме нет новых непрочитанных сообщений. Чудо-женщина / Wonder Woman (Пэтти Дженкинс) [2017, фантастика, фэнтези, боевик, приключения, HDRip] DUB / Фантастика

1179 | 40

1.37 ГБ

В этой теме нет новых непрочитанных сообщений. Лига справедливости / Justice League (Зак Снайдер) [2017, фантастика, фэнтези, боевик, приключения, HDRip] DUB / Фантастика

29 | 5

2.13 ГБ

В этой теме нет новых непрочитанных сообщений. Лига справедливости / Justice League (Зак Снайдер) [2017, фантастика, фэнтези, боевик, приключения, HDRip] DUB / Фантастика

33 | 12

1.46 ГБ

В этой теме нет новых непрочитанных сообщений. Чудо-женщина / Wonder Woman (Пэтти Дженкинс) [2017, фантастика, фэнтези, боевик, приключения, HDRip] DUB / Фантастика

65 | 8

1.45 ГБ

В этой теме нет новых непрочитанных сообщений. Конг: Остров черепа / Kong: Skull Island (Джордан Вот-Робертс) [2017, фантастика, фэнтези, боевик, приключения, HDRip-AVC] DUB / Фантастика

11 | 7

2.27 ГБ

В этой теме нет новых непрочитанных сообщений. Конг: Остров черепа / Kong: Skull Island (Джордан Вот-Робертс) [2017, фантастика, фэнтези, боевик, приключения, HDRip-AVC] 2xDUB (rus, ukr) / Фантастика

46 | 10

2.88 ГБ

В этой теме нет новых непрочитанных сообщений. Звёздные войны: Последние джедаи / Star Wars: Episode VIII - The Last Jedi (Райан Джонсон) [2017, фантастика, фэнтези, боевик, приключения, HDRip] DUB / Фантастика

77 | 6

1.46 ГБ




Вы не можете начинать темы
Вы не можете отвечать на сообщения
Вы не можете редактировать свои сообщения
Вы не можете удалять свои сообщения
Вы не можете добавлять вложения

Перейти:  
 Вход
ppkBB3cker v.2 © 2008-2014 @ PPK
[ Time : 0.027s | 18 Queries | GZIP : Off ]

cron