img image001 image001 image001 image001 image001 image001 image001 image001 image001 image001 image001 image001 image001 image001 image001 image001

Planets Sun Sun Sun
Статистика раздачи
Автор: Снежана | Размер: 1.46 ГБ | Добавлен: 22 май 2018
Раздают: 40    Качают: 6
Скачать торрент
Скачать торрент
Описание торрента

СообщениеДобавлено: 22 май 2018 

Я сражаюсь с великанами / I Kill Giants


Перевод: Профессиональный (полное дублирование) iTunes, субтитры: отсутствуют
Формат: HDRip-AVC, MKV, H.264, AC3
Страна: Бельгия, Великобритания, США
Режиссер: Андерс Вальтер Хансен
Жанр: Фэнтези, триллер, драма
Продолжительность: 01:46:23
Год выпуска: 2017
В ролях: Мэдисон Вульф, Зои Салдана, Имоджен Путс, Сидни Вэйд, Рори Джексон, Аллана О`Коннор, Дженнифер Или, Арт Паркинсон, Дон Вичерли, Эйдин Уайлд, Ноэль Кларк, Соня Келли, Сиара О`Каллаган, Аманда Стюарт, Майя Питерс

Описание: Барбара Торсон — особенная, ее уникальный талант — это возможность видеть мир великанов. И этот мир угрожает людям. Барбаре никто не верит, но она единственная, кто может спасти человечество от исчезновения. Она объявляет великанам войну и готовится к главному сражению в своей жизни.



Видео: 1024x432 (2.40:1), 23.976 fps, AVC MPEG-4 (H.264), ~1538 kbps, 0.145 bit/pixel
Аудио: 48 kHz, AC3 Dolby Digital, 3/2 (L,C,R,l,r) + LFE ch, ~384.00 kbps avg
General
Unique ID : 178186554231687353212878060129163534228 (0x860D7B6782C06E2EEA96ADA28AA9DF94)
Complete name : C:\Users\Юрик\Desktop\I.Kill.Giants.2017.HDRip(AVC)_[tfile.ru].mkv
Format : Matroska
Format version : Version 2
File size : 1.46 GiB
Duration : 1 h 46 min
Overall bit rate : 1 961 kb/s
Writing application : Lavf55.12.100
Writing library : Lavf55.12.100

Video
ID : 2
Format : AVC
Format/Info : Advanced Video Codec
Format profile :
Format settings, CABAC : Yes
Format settings, RefFrames : 2 frames
Format settings, GOP : M=1, N=12
Codec ID : V_MPEG4/ISO/AVC
Duration : 1 h 46 min
Bit rate : 1 538 kb/s
Width : 1 024 pixels
Height : 432 pixels
Display aspect ratio : 2.40:1
Frame rate mode : Constant
Frame rate : 23.976 (24000/1001) FPS
Color space : YUV
Chroma subsampling : 4:2:0
Bit depth : 8 bits
Scan type : Progressive
Bits/(Pixel*Frame) : 0.145
Stream size : 1.14 GiB (78%)
Language : English
Default : Yes
Forced : No
Statistics Tags Issue : mkvmerge v8.3.0 ('Over the Horizon') 64bit 2018-05-22 06:09:40 / Lavf55.12.100
FromStats_BitRate : 1348820
FromStats_Duration : 01:46:23.169000000
FromStats_FrameCount : 153043
FromStats_StreamSize : 1076219006

Audio
ID : 1
Format : AC-3
Format/Info : Audio Coding 3
Format settings, Endianness : Big
Codec ID : A_AC3
Duration : 1 h 46 min
Bit rate mode : Constant
Bit rate : 384 kb/s
Channel(s) : 6 channels
Channel positions : Front: L C R, Side: L R, LFE
Sampling rate : 48.0 kHz
Frame rate : 31.250 FPS (1536 SPF)
Bit depth : 16 bits
Compression mode : Lossy
Stream size : 292 MiB (20%)
Title : iTunes
Language : Russian
Service kind : Complete Main
Default : Yes
Forced : No
Statistics Tags Issue : mkvmerge v8.3.0 ('Over the Horizon') 64bit 2018-05-22 06:09:40 / Lavf55.12.100
FromStats_BitRate : 384000
FromStats_Duration : 01:46:22.112000000
FromStats_FrameCount : 199441
FromStats_StreamSize : 306341376















   Похожие торренты   Торрент   Размер 
В этой теме нет новых непрочитанных сообщений. Я сражаюсь с великанами / I Kill Giants (Андерс Вальтер Хансен) [2017, фэнтези, триллер, драма, WEB-DLRip] MVO

183 | 2

1.37 ГБ

В этой теме нет новых непрочитанных сообщений. Я сражаюсь с великанами / I Kill Giants (Андерс Вальтер Хансен) [2017, фэнтези, триллер, драма, BDRip] DUB

13 | 4

745.44 МБ

В этой теме нет новых непрочитанных сообщений. Я сражаюсь с великанами / I Kill Giants (Андерс Вальтер Хансен) [2017, фэнтези, триллер, драма, BDRip] DUB

124 | 4

1.41 ГБ

В этой теме нет новых непрочитанных сообщений. Эйла / Ayla (Элиас) 2017, Ужасы, фэнтези, триллер, драма, WEBRip DVO

10 | 0

2.51 ГБ

В этой теме нет новых непрочитанных сообщений. Дориан Грей / Dorian Gray (Оливер Паркер) [2009, фэнтези, триллер, драма, HDRip] DUB / Драмы

127 | 0

1.45 ГБ

В этой теме нет новых непрочитанных сообщений. Привидение / Призрак / Ghost (Джерри Цукер) [1990, фэнтези, триллер, драма, мелодрама, HDRip] 2xMVO / Фантастика

10 | 0

1.46 ГБ

В этой теме нет новых непрочитанных сообщений. Убить гонца / Kill the Messenger (Майкл Куэста) [2014, триллер, драма, криминал, детектив, история, HDRip] DUB

15 | 0

1.5 ГБ




Вы не можете начинать темы
Вы не можете отвечать на сообщения
Вы не можете редактировать свои сообщения
Вы не можете удалять свои сообщения
Вы не можете добавлять вложения

Перейти:  
 Вход
ppkBB3cker v.2 © 2008-2014 @ PPK
[ Time : 0.069s | 17 Queries | GZIP : Off ]

cron