img image001 image001 image001 image001 image001 image001 image001 image001 image001 image001 image001 image001 image001 image001 image001 image001

Planets Sun Sun Sun
Статистика раздачи
Автор: Снежана | Размер: 1.46 ГБ | Добавлен: 03 июн 2018
Раздают: 14    Качают: 0
Скачать торрент
Скачать торрент
Описание торрента

СообщениеДобавлено: 03 июн 2018 

Орбита 9 / Órbita 9


Перевод: Профессиональный (полное дублирование) iTunes, субтитры: отсутствуют
Формат: BDRip-AVC, MKV, H.264, AC3
Страна: Испания, Колумбия
Режиссер: Хатем Храиче
Жанр: фантастика, драма, мелодрама
Продолжительность: 01:34:38
Год выпуска: 2017
В ролях: Клара Лаго, Алекс Гонсалес, Андрес Парра, Белен Руэда, Кристина Лилли, Джон Алекс Кастильо, Фернандо Кампо, Сара Дерай, Пачи Сантамария, Ина Хуаристи

Описание: Космическая станция Орбита 9 держит курс на Селесту, куда она доставит своего единственного астронавта — 20-летнюю Элену — только через 19 лет. Для починки одной из систем жизнеобеспечения на корабль прибывает Алекс — первый человек, которого Элена увидит в своей жизни. Она еще не знает, что она не только часть глобального секретного эксперимента по колонизации космоса, но и необычное живое существо, способное повлиять на будущее человечества.



Видео: 1024x432 (2.40:1), 24 fps, AVC MPEG-4 (x264), ~1786 kbps avg, 0.168 bits/(pixel*frame)
Аудио: 48 kHz, AC3, 6 ch, ~384 kbps avg
General
Unique ID : 237351469865813879728585071035167273588 (0xB2903AF5FB6D6A176039DF6E9443F274)
Complete name : C:\Users\Юрик\Desktop\Orbiter_9.2017.BDRip-AVC_[tfile.ru].mkv
Format : Matroska
Format version : Version 2
File size : 1.46 GiB
Duration : 1 h 34 min
Overall bit rate : 2 214 kb/s
Writing application : Lavf55.12.100
Writing library : Lavf55.12.100

Video
ID : 2
Format : AVC
Format/Info : Advanced Video Codec
Format profile :
Format settings, CABAC : Yes
Format settings, RefFrames : 2 frames
Codec ID : V_MPEG4/ISO/AVC
Duration : 1 h 34 min
Bit rate : 1 786 kb/s
Width : 1 024 pixels
Height : 432 pixels
Display aspect ratio : 2.40:1
Frame rate mode : Constant
Frame rate : 24.000 FPS
Color space : YUV
Chroma subsampling : 4:2:0
Bit depth : 8 bits
Scan type : Progressive
Bits/(Pixel*Frame) : 0.168
Stream size : 1.18 GiB (81%)
Title : CHD
Language : Spanish
Default : Yes
Forced : No
Statistics Tags Issue : mkvmerge v17.0.0 ('Be Ur Friend') 64-bit 2018-02-27 16:41:13 / Lavf55.12.100
FromStats_BitRate : 9990391
FromStats_Duration : 01:34:38.417000000
FromStats_FrameCount : 136282
FromStats_StreamSize : 7091201066

Audio
ID : 1
Format : AC-3
Format/Info : Audio Coding 3
Format settings, Endianness : Big
Codec ID : A_AC3
Duration : 1 h 34 min
Bit rate mode : Constant
Bit rate : 384 kb/s
Channel(s) : 6 channels
Channel positions : Front: L C R, Side: L R, LFE
Sampling rate : 48.0 kHz
Frame rate : 31.250 FPS (1536 SPF)
Bit depth : 16 bits
Compression mode : Lossy
Stream size : 260 MiB (17%)
Title : DUB | iTunes
Language : Russian
Service kind : Complete Main
Default : Yes
Forced : No
Statistics Tags Issue : mkvmerge v17.0.0 ('Be Ur Friend') 64-bit 2018-02-27 16:41:13 / Lavf55.12.100
FromStats_BitRate : 384000
FromStats_Duration : 01:34:38.464000000
FromStats_FrameCount : 177452
FromStats_StreamSize : 272566272













   Похожие торренты   Торрент   Размер 
В этой теме нет новых непрочитанных сообщений. Орбита 9 / Orbita 9 (Хатем Храиче) [2017, фантастика, драма, мелодрама, HDRip] DUB

76 | 0

1.43 ГБ

В этой теме нет новых непрочитанных сообщений. Космос между нами / The Space Between Us (Питер Челсом) [2017, фантастика, драма, мелодрама, приключения, HDRip-AVC] DUB / Фантастика

21 | 0

2.28 ГБ

В этой теме нет новых непрочитанных сообщений. Время / In Time ( Эндрю Никкол) [2011, фантастика, триллер, драма, мелодрама, криминал, BDRip-AVC] DUB / Фантастика

34 | 2

1.46 ГБ

В этой теме нет новых непрочитанных сообщений. Плохая партия / The Bad Batch (Ана Лили Амирпур) [2016, Фантастика, мелодрама, драма, ужасы, HDRip-AVC] MVO / Фантастика

2 | 0

744.87 МБ

В этой теме нет новых непрочитанных сообщений. Гаттака / Gattaca (Эндрю Никкол) [Open Matte] [1997, фантастика, мелодрама, драма, детектив, WEB-DLRip-AVC] DUB / Фантастика

15 | 0

1.41 ГБ

В этой теме нет новых непрочитанных сообщений. Логан / Logan (Джеймс Мэнголд) [2017, фантастика, боевик, триллер, драма, BDRip] DUB / Фантастика

490 | 14

1.46 ГБ

В этой теме нет новых непрочитанных сообщений. Логан / Logan (Джеймс Мэнголд) [2017, фантастика, боевик, триллер, драма, BDRip-AVC] DUB / Фантастика

23 | 6

2.46 ГБ




Вы не можете начинать темы
Вы не можете отвечать на сообщения
Вы не можете редактировать свои сообщения
Вы не можете удалять свои сообщения
Вы не можете добавлять вложения

Перейти:  
 Вход
ppkBB3cker v.2 © 2008-2014 @ PPK
[ Time : 0.023s | 17 Queries | GZIP : Off ]

cron