img image001 image001 image001 image001 image001 image001 image001 image001 image001 image001 image001 image001 image001 image001 image001

Planets Sun Sun Sun
Статистика раздачи
Автор: Снежана | Размер: 705.69 МБ | Добавлен: 06 июн 2018
Раздают: 1    Качают: 0
Скачать торрент
Скачать торрент
Описание торрента

СообщениеДобавлено: 06 июн 2018 

Секс ковбои / Sex Cowboys
Оценка релиза: 

Перевод: Любительский (одноголосый)datynet; перевод: Куценко, субтитры: отсутствуют
Формат: DVDRip-AVC, MKV, H264, MP3
Страна: Италия
Режиссер: Адриано Джотти / Adriano Giotti
Жанр: Драма
Продолжительность: 01:10:10
Год выпуска: 2016
В ролях: Нэтали Бэкс, Франческо Маччаринелли, Федерико Розати.
Описание: Марла и Симон безумно влюблены и у них очень страстные отношения. Но им также с трудом удается сводить концы с концами, и они не в состоянии оплатить арендную плату. В отчаянии они принимают решения снять порно видео.



Видео: 720x390 (1.90:1), 25fps, MPEG4 Video (H264) ~ 1 212 kbps avg, 0.173 bit/pixel
Аудио: 48 kHz, MPEG Layer 3, 2 ch, ~192.00 kbps avg
Доп. информация:

Format : Matroska
Format version : Version 4 / Version 2
File size : 706 MiB
Duration : 1 h 10 min
Overall bit rate : 1 406 kb/s
Encoded date : UTC 2018-06-06 08:56:48
Writing application : mkvmerge v9.6.0 ('Slave To Your Mind') 64bit
Writing library : libebml v1.3.4 + libmatroska v1.4.5

Video
ID : 1
Format : AVC
Format/Info : Advanced Video Codec
Format profile :
Format settings, CABAC : Yes
Format settings, RefFrames : 3 frames
Codec ID : V_MPEG4/ISO/AVC
Duration : 1 h 10 min
Bit rate : 1 212 kb/s
Width : 720 pixels
Height : 390 pixels
Display aspect ratio : 1.903
Frame rate mode : Constant
Frame rate : 25.000 FPS
Color space : YUV
Chroma subsampling : 4:2:0
Bit depth : 8 bits
Scan type : Progressive
Bits/(Pixel*Frame) : 0.173
Stream size : 608 MiB (86%)
Writing library : x264 core 148 r2744kMod b97ae06
Encoding settings : cabac=1 / ref=3 / deblock=1:-2:-2 / analyse=0x3:0x113 / me=hex / subme=7 / psy=1 / fade_compensate=0.60 / psy_rd=1.00:0.00 / mixed_ref=1 / me_range=16 / chroma_me=1 / trellis=1 / 8x8dct=1 / cqm=0 / deadzone=21,11 / fast_pskip=1 / chroma_qp_offset=-2 / threads=6 / lookahead_threads=1 / sliced_threads=0 / nr=0 / decimate=1 / interlaced=0 / bluray_compat=0 / constrained_intra=0 / bframes=3 / b_pyramid=1 / b_adapt=1 / b_bias=0 / direct=1 / weightb=1 / open_gop=0 / weightp=2 / keyint=240 / keyint_min=24 / scenecut=50 / intra_refresh=0 / rc_lookahead=40 / rc=crf / mbtree=1 / crf=19.0000 / qcomp=0.60 / qpmin=0 / qpmax=40 / qpstep=4 / vbv_maxrate=17500 / vbv_bufsize=17500 / crf_max=0.0 / nal_hrd=none / filler=0 / ip_ratio=1.50 / aq=3:0.70
Default : Yes
Forced : No
Color range : Limited
Color primaries : BT.709
Transfer characteristics : BT.709
Matrix coefficients : BT.709

Audio
ID : 2
Format : MPEG Audio
Format version : Version 1
Format profile : Layer 3
Codec ID : A_MPEG/L3
Codec ID/Hint : MP3
Duration : 1 h 10 min
Bit rate mode : Constant
Bit rate : 192 kb/s
Channel(s) : 2 channels
Sampling rate : 48.0 kHz
Frame rate : 41.667 FPS (1152 SPF)
Compression mode : Lossy
Stream size : 96.4 MiB (14%)
Default : Yes
Forced : No











   Похожие торренты   Торрент   Размер 
В этой теме нет новых непрочитанных сообщений. Исследуя секс / Investigating Sex (Алан Рудольф) [2001, драма, комедия, HDRip] MVO / Драмы

0 | 0

1.46 ГБ

В этой теме нет новых непрочитанных сообщений. Одиночество, секс и жалость / Einsamkeit und Sex und Mitleid (Ларс Монтаг) [2017, драма, WEBDLRip] MVO / Драмы

2 | 0

1.37 ГБ

В этой теме нет новых непрочитанных сообщений. Одинокие ковбои / Lonesome Cowboys (1968) DVDRip | A

0 | 0

2.04 ГБ

В этой теме нет новых непрочитанных сообщений. Анатомия порока / Diary of a Sex Addict (Джозеф Братсмэн) [2001, драма, DVDRip] 2хMVO / Драмы

2 | 0

1.46 ГБ

В этой теме нет новых непрочитанных сообщений. Секс-салон 2 / Секс-санаторий 2: Телесная работа / The Sex Spa II: Body Work (2005) DVDRip | P2

407 | 28

1.4 ГБ

В этой теме нет новых непрочитанных сообщений. Ковбои против пришельцев [Расширенная версия] / Cowboys & Aliens [Extended Cut] (Джон Фавро) [2011, фантастика, боевик, триллер, вестерн, HDRip-AVC] DUB

0 | 0

2.19 ГБ

В этой теме нет новых непрочитанных сообщений. Секс и император / Man qing jin gong qi an / Sex and the emperor (Шерман Вон) [1994, драма, комедия, HDRip] VO

2 | 0

1.45 ГБ




Вы не можете начинать темы
Вы не можете отвечать на сообщения
Вы не можете редактировать свои сообщения
Вы не можете удалять свои сообщения
Вы не можете добавлять вложения

Перейти:  
Контактная информация: rstracker[пёсик]yandex.ru
 Вход
ppkBB3cker v.2 © 2008-2014 @ PPK
[ Time : 0.032s | 17 Queries | GZIP : Off ]

cron