img image001 image001 image001 image001 image001 image001 image001 image001 image001 image001 image001 image001 image001 image001 image001 image001

Planets Sun Sun Sun
Статистика раздачи
Автор: Снежана | Размер: 2.91 ГБ | Добавлен: 09 июн 2018
Раздают: 25    Качают: 0
Скачать торрент
Скачать торрент
Описание торрента

СообщениеДобавлено: 09 июн 2018 

Призрачная нить / Phantom Thread


Перевод: Профессиональный (полное дублирование) Лицензия Blu-ray EUR
Cубтитры: Pусские, английские
Формат: BDRip, MKV, H/264, AC3
Страна: США
Режиссер: Пол Томас Андерсон
Жанр: Драма
Продолжительность: 02:10:07
Год выпуска: 2017
В ролях: Вики Крипс, Дэниэл Дэй-Льюис, Лесли Мэнвилл, Сью Кларк, Джоан Браун, Харриет Лейч, Дина Николсон, Джули Дак, Мэриэнн Фрост, Элли Бэнкс
Описание: Лондон 50-х годов прошлого века с его архитектурой, декорациями, нарядами и образом жизни от гения - кутюрье. Рейнольдс Вудкок в постоянном поиске музы и судьба - по заслугам, преподносит ему встречу с Альмой. Две абсолютные противоположности едины в одном - доминирование в любви, и в этой борьбе способны на крайние меры.



Видео: 1024x552 (1.85:1), 23.976 fps, AVC MPEG-4 (x264), High@L4,1 ~ 2 305 kbps, 0.170 bit/pixel

Аудио#1: Русский: 48 kHz/16 bits, AC3 Dolby Digital, 3/2 (L,C,R,l,r) + LFE ch, ~ 448 kbps avg [Профессиональный (полное дублирование), Лицензия Blu-ray EUR]
Аудио#2: Английский: 48 kHz/16 bits, AC3 Dolby Digital, 3/2 (L,C,R,l,r) + LFE ch, ~ 448 kbps avg [Оригинал]






Общее
Уникальный идентификатор : 173566893823660339120813255642759999687 (0x8293C48FA66DACD4AAA04D6D330AB0C7)
Полное имя : E:\Закачка-2\Prizrachnaya.Nit.2017.DUAL.BDRip.x264.-HELLYWOOD.mkv
Формат : Matroska
Версия формата : Version 4 / Version 2
Размер файла : 2,91 Гбайт
Продолжительность : 2 ч. 10 м.
Общий поток : 3203 Кбит/сек
Название фильма : Phantom Thread (2017)
Дата кодирования : UTC 2018-06-07 15:46:04
Программа кодирования : mkvmerge v5.9.0 ('On The Loose') built on Dec 15 2012 16:39:58
Библиотека кодирования : libebml v1.3.0 + libmatroska v1.4.0

Видео
Идентификатор : 1
Формат : AVC
Формат/Информация : Advanced Video Codec
Профиль формата :
Параметр CABAC формата : Да
Параметр ReFrames формата : 12 кадров
Идентификатор кодека : V_MPEG4/ISO/AVC
Продолжительность : 2 ч. 10 м.
Битрейт : 2305 Кбит/сек
Ширина : 1024 пикселя
Высота : 552 пикселя
Соотношение сторон : 1,85:1
Режим частоты кадров : Постоянный
Частота кадров : 23,976 (24000/1001) кадра/сек
Цветовое пространство : YUV
Субдискретизация насыщенности : 4:2:0
Битовая глубина : 8 бит
Тип развёртки : Прогрессивная
Бит/(Пиксели*Кадры) : 0.170
Размер потока : 2,04 Гбайт (70%)
Заголовок : potroks
Библиотека кодирования : x264 core 155 r2901M 7d0ff22
Настройки программы : cabac=1 / ref=12 / deblock=1:-2:-2 / analyse=0x3:0x133 / me=umh / subme=11 / psy=1 / psy_rd=0.96:0.00 / mixed_ref=1 / me_range=48 / chroma_me=1 / trellis=2 / 8x8dct=1 / cqm=0 / deadzone=21,11 / fast_pskip=0 / chroma_qp_offset=-2 / threads=9 / lookahead_threads=2 / sliced_threads=0 / nr=0 / decimate=0 / interlaced=0 / bluray_compat=0 / constrained_intra=0 / bframes=12 / b_pyramid=2 / b_adapt=2 / b_bias=0 / direct=3 / weightb=1 / open_gop=0 / weightp=2 / keyint=240 / keyint_min=23 / scenecut=40 / intra_refresh=0 / rc_lookahead=100 / rc=2pass / mbtree=0 / bitrate=2305 / ratetol=1.0 / qcomp=0.70 / qpmin=0 / qpmax=69 / qpstep=4 / cplxblur=20.0 / qblur=0.5 / vbv_maxrate=50000 / vbv_bufsize=50000 / nal_hrd=none / filler=0 / ip_ratio=1.40 / pb_ratio=1.30 / aq=2:0.70
Язык : English
Default : Да
Forced : Нет

Аудио #1
Идентификатор : 2
Формат : AC-3
Формат/Информация : Audio Coding 3
Расширение режима : CM (complete main)
Параметр Endianness формата : Big
Идентификатор кодека : A_AC3
Продолжительность : 2 ч. 10 м.
Вид битрейта : Постоянный
Битрейт : 448 Кбит/сек
Каналы : 6 каналов
Расположение каналов : Front: L C R, Side: L R, LFE
Частота : 48,0 КГц
Частота кадров : 31,250 кадров/сек (1536 spf)
Метод сжатия : С потерями
Размер потока : 417 Мбайт (14%)
Заголовок : Dub | DD 5.1 @ 448 kbps - Blu-ray CEE
Язык : Russian
Default : Да
Forced : Нет

Аудио #2
Идентификатор : 3
Формат : AC-3
Формат/Информация : Audio Coding 3
Расширение режима : CM (complete main)
Параметр Endianness формата : Big
Идентификатор кодека : A_AC3
Продолжительность : 2 ч. 10 м.
Вид битрейта : Постоянный
Битрейт : 448 Кбит/сек
Каналы : 6 каналов
Расположение каналов : Front: L C R, Side: L R, LFE
Частота : 48,0 КГц
Частота кадров : 31,250 кадров/сек (1536 spf)
Метод сжатия : С потерями
Размер потока : 417 Мбайт (14%)
Заголовок : Original | DD 5.1 @ 448 kbps
Язык : English
Default : Нет
Forced : Нет

Текст #1
Идентификатор : 4
Формат : UTF-8
Идентификатор кодека : S_TEXT/UTF8
Идентификатор кодека/Информация : UTF-8 Plain Text
Заголовок : Forced
Язык : Russian
Default : Да
Forced : Нет

Текст #2
Идентификатор : 5
Формат : UTF-8
Идентификатор кодека : S_TEXT/UTF8
Идентификатор кодека/Информация : UTF-8 Plain Text
Заголовок : Blu-ray CEE
Язык : Russian
Default : Нет
Forced : Нет

Текст #3
Идентификатор : 6
Формат : UTF-8
Идентификатор кодека : S_TEXT/UTF8
Идентификатор кодека/Информация : UTF-8 Plain Text
Заголовок : Focs
Язык : Russian
Default : Нет
Forced : Нет

Текст #4
Идентификатор : 7
Формат : UTF-8
Идентификатор кодека : S_TEXT/UTF8
Идентификатор кодека/Информация : UTF-8 Plain Text
Заголовок : Full
Язык : English
Default : Нет
Forced : Нет





   Похожие торренты   Торрент   Размер 
В этой теме нет новых непрочитанных сообщений. Призрачная нить / Phantom Thread (Пол Томас Андерсон) [2017, Драма, BDRip] DUB

16 | 0

2.12 ГБ

В этой теме нет новых непрочитанных сообщений. Призрачная нить / Phantom Thread (Пол Томас Андерсон) [2017, Драма, BDRip] DUB

45 | 0

1.46 ГБ

В этой теме нет новых непрочитанных сообщений. Призрачная нить / Phantom Thread (Пол Томас Андерсон) [2017, драма, мелодрама, BDRip-AVC] DUB

41 | 0

1.4 ГБ

В этой теме нет новых непрочитанных сообщений. Призрачная нить / Phantom Thread (Пол Томас Андерсон) [2017, Драма, BDRip] MVO / Драмы

13 | 4

1.46 ГБ

В этой теме нет новых непрочитанных сообщений. Призрачная нить / Phantom Thread (Пол Томас Андерсон) [2017, драма, мелодрама, BDRip] DUB / Драмы

12 | 0

2.18 ГБ

В этой теме нет новых непрочитанных сообщений. Призрачная нить / Phantom Thread (Пол Томас Андерсон) [2017, драма, мелодрама, BDRip] DUB / Драмы

62 | 8

1.46 ГБ

В этой теме нет новых непрочитанных сообщений. Призрачная нить / Phantom Thread (Пол Томас Андерсон) [2017, драма, мелодрама, BDRip-AVC] DUB / Драмы

25 | 0

1.46 ГБ




Вы не можете начинать темы
Вы не можете отвечать на сообщения
Вы не можете редактировать свои сообщения
Вы не можете удалять свои сообщения
Вы не можете добавлять вложения

Перейти:  
 Вход
ppkBB3cker v.2 © 2008-2014 @ PPK
[ Time : 0.034s | 19 Queries | GZIP : Off ]

cron